<svg xmlns="http://www.w3.org/2000/svg">
<defs>
<font id="Undefined" horiz-adv-x="685" >
  <font-face 
    font-family="Fz Game Of Squids ver202"
    font-weight="400"
    font-stretch="normal"
    units-per-em="1024"
    panose-1="0 0 4 0 0 0 0 0 0 0"
    ascent="819"
    descent="-205"
    x-height="640"
    cap-height="640"
    bbox="0 -320 1716 1113"
    underline-thickness="51"
    underline-position="77"
    unicode-range="U+0020-E006"
  />
<missing-glyph horiz-adv-x="612" 
d="M260 879q2 0 16 -1q7 0 17 1q63 -1 120 -4v-1q2 1 12 3q5 -3 11 -3h13q38 0 78 -17q29 -21 29 -41q6 0 15 -76q4 -33 7 -102q2 0 2 -1q-2 -18 -3 -21l1 -8v-14q0 -3 2 -5l-2 -3q0 -7 2 -28q-5 -70 -5 -95q0 -7 2 -16q-2 -53 -6 -82v-13q-8 -136 -11 -148q-7 -4 -22 -4
l-1 3q0 2 15 5v14q-12 10 -12 11l4 3l8 -2q3 6 3 9l-2 9q4 19 4 49v9q3 14 9 98l-2 22q2 58 5 68q-2 7 -2 12l2 7q-2 0 -2 1q-1 0 -1 -1l-7 1h-26v-40q0 -7 1 -12q-1 -7 -1 -14v-37q0 -10 -35 -11l-3 12q0 2 2 5q-2 11 -2 19l2 5q-3 0 -3 3v11q0 7 3 7q-3 5 -3 8v43
q0 10 -8 10q-19 0 -19 -9q1 -11 1 -19v-5q0 -5 -1 -7l1 -9v-5q0 -5 -1 -7q1 -17 2 -17l-1 -5q0 -13 1 -19l-2 -105q-4 -3 -5 -3h-5q-1 0 -4 4q1 26 1 38v68q0 6 -1 16q1 1 1 11v8q0 3 -1 5q1 3 3 17q-2 13 -2 26l3 4v2q-4 5 -4 19l4 3h12l9 -2q2 2 4 2q27 -2 27 -10
q0 -5 -3 -19q3 -5 3 -9v-55q0 -5 2 -15q-2 -1 -2 -11v-3l2 -2q8 2 9 7v66q0 5 2 11q-2 5 -2 11v19q0 4 17 6l8 -2h19l3 -1l-3 127q2 7 2 34q-4 18 -4 19v7q0 5 1 7q0 44 -14 54q-6 37 -8 37q-13 32 -28 32q-22 15 -70 15q-15 -3 -19 -3h-4q-4 0 -4 1l-7 -1h-33q-9 0 -18 1
q-5 -1 -13 -1q-27 4 -36 4h-13q-11 -5 -11 -7v-9q0 -10 -9 -10q-1 2 -2 19h1q-1 3 -1 6h-9q-3 0 -8 -33l-3 -2q-2 0 -4 5q2 24 2 28l-3 2h-3q-7 0 -8 -33q-3 -4 -4 -4h-2q-1 0 -4 4l2 7v15q0 7 -6 9h-1q-3 0 -3 -2v-3q0 -1 3 -11v-1q0 -21 -13 -21q-2 4 -7 36h-7v-15
q0 -2 -4 -5l-8 18q-5 -1 -5 -5q4 -7 8 -21v-3q0 -2 -3 -2q-20 25 -27 29h-3q-24 -10 -28 -10q-9 -10 -9 -15q10 -31 31 -51q6 -6 6 -7v-1q0 -5 -6 -5q-3 0 -42 27q0 3 5 4q3 -2 4 -2v9q-4 4 -4 6h-4q-1 0 -11 -16v-8q11 -2 23 -14v-1l-4 -3q-16 3 -22 3q-3 -1 -3 -3v-9

<glyph glyph-name=".notdef" horiz-adv-x="612" 
d="M260 879q2 0 16 -1q7 0 17 1q63 -1 120 -4v-1q2 1 12 3q5 -3 11 -3h13q38 0 78 -17q29 -21 29 -41q6 0 15 -76q4 -33 7 -102q2 0 2 -1q-2 -18 -3 -21l1 -8v-14q0 -3 2 -5l-2 -3q0 -7 2 -28q-5 -70 -5 -95q0 -7 2 -16q-2 -53 -6 -82v-13q-8 -136 -11 -148q-7 -4 -22 -4
l-1 3q0 2 15 5v14q-12 10 -12 11l4 3l8 -2q3 6 3 9l-2 9q4 19 4 49v9q3 14 9 98l-2 22q2 58 5 68q-2 7 -2 12l2 7q-2 0 -2 1q-1 0 -1 -1l-7 1h-26v-40q0 -7 1 -12q-1 -7 -1 -14v-37q0 -10 -35 -11l-3 12q0 2 2 5q-2 11 -2 19l2 5q-3 0 -3 3v11q0 7 3 7q-3 5 -3 8v43
q0 10 -8 10q-19 0 -19 -9q1 -11 1 -19v-5q0 -5 -1 -7l1 -9v-5q0 -5 -1 -7q1 -17 2 -17l-1 -5q0 -13 1 -19l-2 -105q-4 -3 -5 -3h-5q-1 0 -4 4q1 26 1 38v68q0 6 -1 16q1 1 1 11v8q0 3 -1 5q1 3 3 17q-2 13 -2 26l3 4v2q-4 5 -4 19l4 3h12l9 -2q2 2 4 2q27 -2 27 -10
q0 -5 -3 -19q3 -5 3 -9v-55q0 -5 2 -15q-2 -1 -2 -11v-3l2 -2q8 2 9 7v66q0 5 2 11q-2 5 -2 11v19q0 4 17 6l8 -2h19l3 -1l-3 127q2 7 2 34q-4 18 -4 19v7q0 5 1 7q0 44 -14 54q-6 37 -8 37q-13 32 -28 32q-22 15 -70 15q-15 -3 -19 -3h-4q-4 0 -4 1l-7 -1h-33q-9 0 -18 1
q-5 -1 -13 -1q-27 4 -36 4h-13q-11 -5 -11 -7v-9q0 -10 -9 -10q-1 2 -2 19h1q-1 3 -1 6h-9q-3 0 -8 -33l-3 -2q-2 0 -4 5q2 24 2 28l-3 2h-3q-7 0 -8 -33q-3 -4 -4 -4h-2q-1 0 -4 4l2 7v15q0 7 -6 9h-1q-3 0 -3 -2v-3q0 -1 3 -11v-1q0 -21 -13 -21q-2 4 -7 36h-7v-15
q0 -2 -4 -5l-8 18q-5 -1 -5 -5q4 -7 8 -21v-3q0 -2 -3 -2q-20 25 -27 29h-3q-24 -10 -28 -10q-9 -10 -9 -15q10 -31 31 -51q6 -6 6 -7v-1q0 -5 -6 -5q-3 0 -42 27q0 3 5 4q3 -2 4 -2v9q-4 4 -4 6h-4q-1 0 -11 -16v-8q11 -2 23 -14v-1l-4 -3q-16 3 -22 3q-3 -1 -3 -3v-9
q2 0 5 -1q3 0 11 1q30 -1 42 -5v-4h-9q-2 0 -28 3q-10 -3 -19 -5v-6h1q18 0 37 1q14 -1 27 -1l2 -5v-2q0 -3 -2 -3q-38 1 -46 1q-5 0 -23 -2q0 -3 5 -5q23 2 35 2l1 -3v-5h-8q-2 0 -2 1l-2 -1h-14q-18 0 -18 -9h8q2 0 15 3h10q19 0 29 4v2q-3 3 -3 4l1 2q24 -2 24 -8v-3
q-6 0 -6 -4v-3q6 -1 10 -1v-3q0 -2 -4 -4h-12q-6 0 -12 -1q-5 1 -11 1h-11q-3 0 -5 2q-39 0 -39 -14q-11 -45 -24 -172v-16q-5 -17 -5 -37v-25q-4 -18 -4 -30v-16q0 -5 2 -5l-2 -6v-18q0 -36 4 -36q3 -2 6 -2h3q25 9 29 9q16 0 38 -7l7 1l46 -4l1 3v3q-18 5 -26 5h-6
q-6 -5 -11 -5h-1q-7 5 -36 23q-43 43 -43 66v3q0 2 4 4h5q7 -1 23 -32q6 -7 29 -13q3 -7 12 -13h3l4 3q-15 16 -15 23v3l1 14q-2 0 -6 16q-16 20 -16 29q0 15 -5 32q1 44 5 52q-3 10 -26 22q0 1 -8 9q0 2 4 2t11 -2l3 1l30 -18q5 0 17 -4q2 1 4 1q0 12 -22 18q-36 13 -39 17
q-1 0 -1 1q0 3 3 3h1q3 0 43 -12q3 0 16 11q1 0 6 1v3l-11 9q0 11 15 11v2q0 4 -2 9q2 14 5 14h1q10 0 10 -14q-3 -7 -3 -11h3q10 0 11 -4q-2 0 -4 -4q13 -5 17 -14q-1 -11 -11 -11l-1 -2v-7q8 -6 14 -14h5q25 0 49 3l8 -2q13 2 25 2h11v1q0 63 7 63l6 2q8 -2 13 -2l5 2
q7 -3 10 -3l3 1l3 -1q6 1 6 8v3q0 3 -2 3q-25 1 -40 1h-2q-7 0 -8 4v3q0 3 11 6l3 -2q1 0 1 2q48 0 48 -10l5 -4v-2q0 -1 -2 -1l2 -3q0 -2 -3 -8l1 -3q0 -8 -15 -8q-10 0 -37 1q-2 -4 -3 -4l1 -9v-6q0 -1 -1 -1l1 -3q0 -43 -13 -43q-3 0 -21 -2q-1 0 -11 1l-7 -1q-1 0 -4 1
q-20 -3 -47 -3h-4v-1q10 -28 30 -28q9 0 15 -9v-5q0 -7 -4 -8q-10 8 -13 8h-9l-7 -1v-4q6 -6 6 -11v-13q14 -13 19 -38q21 -28 21 -43v-12l-4 -6l1 -13l-3 -2h-11q-2 0 -11 4q-2 -1 -4 -1v-3q16 -6 35 -11q16 5 16 7v1q-15 10 -15 11v7q3 13 7 13h3l6 -9h2q3 0 3 6q4 0 7 -1
l8 1q9 -3 12 -3h2l6 2q0 -3 17 -14l7 -8v-3q0 -2 -4 -4q-10 1 -15 1h-2l-1 -7q0 -1 1 -5h4q5 4 11 4l18 -3q7 13 15 21h6v-2l-3 -4v-1q0 -3 40 -11q0 -2 13 -11v-2q0 -6 -21 -13q-3 0 -3 1q-54 -1 -54 -7v-4h21q3 -1 3 -3l-7 -5h-11q-3 2 -6 2q-16 0 -44 3q-9 -7 -16 -7h-3
q-2 0 -4 4q8 5 8 9h-5l-6 -4l-10 1l-9 -1v-5q0 -2 15 -5q6 -17 25 -17q45 -2 84 -11h1l8 2q13 -3 13 -6q-3 -7 -8 -7q-38 7 -49 7q-2 -1 -5 -1q-11 2 -48 5q0 1 -11 7h-11q-25 11 -33 11q-18 3 -24 6h-1q-2 0 -11 -3h-4l-6 4q-29 0 -41 4h-7v-9q0 -3 -6 -6q-19 3 -27 3h-8
q-3 0 -3 3v1l7 7q-21 1 -21 10v5l7 1q84 -9 103 -13q12 0 42 -2q12 3 12 6v3q-8 0 -26 5l-7 -1q-75 5 -119 12q-20 -9 -20 -11t-4 -4h-5l-9 1q0 -1 -4 -4q0 -5 12 -99v-10q0 -2 4 -11h2q4 0 9 22q-1 8 -1 11q8 6 21 6h13q3 0 7 16q13 9 17 22l7 2l24 -8h5q2 0 4 12l4 3
q5 -7 9 -7q15 14 29 14h2q2 0 22 -13q7 -1 14 -1q1 5 12 5h1q21 -16 21 -33q0 -1 -5 -8v-6q9 -12 53 -12q0 -6 20 -7q3 13 59 14l19 -3q0 2 1 4q-1 0 -4 2q-18 -2 -29 -2q-1 0 -4 2l-8 -2h-7q-12 0 -18 9q3 5 11 11h14q27 5 37 5h24v6q-12 0 -17 13q-3 0 -3 2l-9 -2h-17
q-3 0 -3 3v3q16 5 21 5q16 -1 29 -1v7q0 3 -3 3h-4q-6 0 -15 1q-7 -7 -39 -7h-11q-5 0 -12 2q-2 -2 -10 -2q-29 9 -29 17l7 3q27 -7 73 -7q9 1 9 4l-9 5h-31q-3 0 -3 3v4q0 4 16 6q47 -8 47 -17q25 -9 25 -11v-14q3 0 22 -13q38 0 51 -25q0 -3 -3 -3h-18q-5 0 -27 14
q-9 5 -11 5q-4 0 -17 -2q0 -3 13 -6l1 -3q0 -3 -12 -5v-2q0 -2 11 -8l-3 -5q-5 1 -6 1l-9 -3q0 -1 31 -14q7 -4 7 -5q0 -3 -2 -3h-5q-32 10 -40 10l-31 4q-32 -18 -35 -18q-27 0 -31 -7v-4q10 -1 15 -6h23q6 5 53 17q6 0 6 -3q7 3 13 3q12 -4 14 -8q1 0 4 1q20 0 34 -18
q-3 0 -3 -3q-7 0 -42 17q-12 3 -15 3q-12 -2 -14 -2l-7 2q-32 -12 -39 -17q5 0 9 -7v-2q0 -3 -6 -6q-14 12 -30 17q-14 -3 -14 -6q11 -1 11 -5v-3l-1 -10q14 -6 18 -14h1q11 0 25 9q2 0 14 8q5 0 9 19q15 6 15 8h9l71 -31q5 0 14 5q0 5 -4 10q0 4 8 4q0 1 -11 12q2 0 2 2
q5 -3 15 -3q5 4 9 4l2 -3q0 -27 -28 -66q-26 -49 -76 -73q-8 -10 -56 -18q0 -2 -47 -11h-32q-2 0 -33 -4h-1q-101 4 -101 22q-4 10 -5 21q1 15 1 28v6q-3 7 -14 7v4h10q5 0 23 -8h7q2 0 27 8q4 0 12 2q0 8 -23 14q0 2 -10 2h-2q-39 -11 -52 -11q0 -1 -22 -7q-10 3 -10 5
q-2 -2 -5 -2v-11q2 -11 34 -38v-3q0 -8 -9 -14h-7q-37 16 -50 41q-16 26 -29 89q-2 12 -2 17v12q0 4 -5 9v11q-12 95 -12 112q-2 41 -3 52q2 17 2 33v32l11 116q-2 2 -2 4q4 59 15 133q16 84 24 116q18 55 41 55q0 7 55 14q11 3 43 7v-1q3 1 4 1q17 0 32 1zM358 856l1 -3
q-7 -10 -26 -20q-1 -5 -8 -5q-3 0 -3 3v3q5 8 25 15q3 7 11 7zM320 853q3 0 3 -3v-1q-24 -19 -37 -33h-5q-3 0 -3 3q0 13 29 29q9 5 13 5zM414 853l2 -3q-6 -7 -49 -23q-10 -7 -60 -29h-4q-3 0 -3 3v1q4 9 41 19q54 31 73 32zM137 842h3q2 0 7 -21q22 -26 22 -30l-3 -1h-4
q-32 21 -32 34q4 18 7 18zM161 834h2q16 -14 20 -21v-4q0 -3 -4 -3q-17 11 -22 21v3q0 2 4 4zM473 831h3q6 -3 6 -7q0 -48 2 -89l-1 -3l1 -7q-4 -43 -4 -50l10 -1h25q20 -3 20 -16v-2q-2 -10 -2 -11v-1q0 -4 1 -4l-1 -7v-20q0 -3 -17 -5q-3 0 -5 1q-3 -1 -6 -1h-3
q-11 0 -11 11v15q0 1 2 1l-2 3v15q1 3 3 3h6q2 0 4 -4v-25q1 -8 4 -8h4q8 0 8 11v22q0 4 -2 8l-14 -1h-6l-14 1q0 -1 -1 -1q0 -2 1 -4q-2 -19 -2 -40v-32l1 -8q-1 -3 -1 -4q1 -3 1 -4h-1q1 -10 9 -10h21l7 1v33q0 3 5 6h5q2 0 4 -4v-42q0 -1 -7 -6q-1 0 -11 1l-7 -1v1
q-3 -1 -4 -1l-9 1q-7 -1 -12 -1q-11 0 -14 16h-1l1 8q-1 17 -1 18h1q-1 3 -1 4l1 3l-1 3l1 3l-1 8q0 1 1 1q-1 3 -1 4l1 13q0 1 -1 1l1 7l-1 14l1 8q0 5 -8 7l-8 -1q-18 4 -59 4h-25q-3 0 -3 4q0 7 23 10v1q24 -3 31 -3l13 2q3 -2 5 -2q1 0 1 2q13 -3 28 -3v1q1 29 4 44
l-2 10q0 1 2 8q-3 11 -3 17q0 7 1 12q-1 13 -1 25v32q0 2 5 5zM410 821l1 -2v-2q-6 -5 -45 -18q-5 -4 -23 -8l-2 3v1q0 6 64 26h5zM220 815q44 -10 44 -22q14 -12 14 -35q0 -33 -26 -43q-3 -5 -10 -5h-12q-8 0 -20 -2q-14 0 -31 21l-9 18q3 33 11 46q21 22 39 22zM402 794
l1 -3q-2 -8 -23 -8q-14 -7 -58 -19h-3q-2 0 -4 4q0 5 74 25q8 1 13 1zM409 776h5q3 0 3 -3v-2q0 -3 -33 -13q-13 -4 -55 -8q0 -2 -11 -3q-6 2 -6 4q0 3 24 6l45 8q17 5 28 11zM389 750h27v-3q-4 -5 -34 -8q0 -3 -6 -3h-50q-5 -4 -12 -4h-20q-2 0 -2 3v1q0 2 4 4h11
q16 0 34 6h29q18 4 19 4zM381 722q10 -2 17 -2h7q2 -1 2 -3v-2q0 -2 -2 -2h-5q-4 0 -4 1q-2 0 -37 -4q-31 1 -55 4q-7 -4 -18 -4l-1 3v2q0 3 12 6q25 -1 40 -1h32q3 0 12 2zM157 713v-2h4v2h-4zM104 682q11 -1 29 -16q21 15 28 15l2 -4v-2q0 -1 -16 -16q3 -5 3 -8v-3
q0 -3 -3 -3h-2q-1 2 -28 6q-2 4 -2 5q3 5 3 8q-8 2 -22 14v3zM260 680h27q5 0 13 -2q2 2 5 2t9 -3l2 1q2 0 4 -1q12 1 18 1q14 0 14 -20v-2q-1 -4 -8 -4l-7 11q-3 1 -21 3q-18 -2 -38 -2h-9v-18q0 -1 3 -11q-1 -4 -3 -4q2 -13 2 -20v-6q0 -38 -6 -38h-5q-3 0 -3 4
q0 11 -1 49l1 10l-3 1l2 7v15l-2 9q3 4 3 8l-1 3q1 7 4 7zM217 674h4l24 -12v-3q0 -2 -7 -4q-13 8 -18 8q-8 0 -8 -15q1 0 7 -7v-4q0 -3 -3 -3q-15 3 -20 3q-7 -3 -13 -11h-4q-2 0 -5 4q3 5 11 16q0 6 -11 14h-4l-9 -7q-2 0 -4 5v2q7 13 23 13q15 -15 15 -20h6q0 6 16 21z
M370 653q10 -2 19 -2h11q10 2 11 2h5l5 -4l-1 -16v-40q0 -8 1 -22q-1 -3 -1 -4q1 -3 1 -5h-1q1 -2 1 -5h4q7 3 7 8q-1 5 -1 6t1 1l-3 18q3 11 3 26v17q0 3 1 5q-1 3 -1 6q1 7 4 7q8 0 8 -13v-34q0 -16 -1 -48q-5 -10 -29 -10h-3q-3 4 -4 12q0 2 2 4q-2 10 -2 16v5q0 1 2 1
l-2 3v40l-2 10q-6 0 -11 -2q-6 2 -12 2h-1q0 -4 -1 -11q1 -3 1 -4q-4 -11 -7 -11h-3q-5 2 -5 9v4q0 2 1 2l-1 3v13q0 11 4 11zM362 604q19 0 19 -29q0 -2 -1 -2l1 -6v-17q0 -2 -8 -7l-10 2h-14q-6 0 -13 -2q-25 0 -25 13v19l-2 8q0 19 16 19h15q8 0 22 2zM323 582
q2 -10 2 -15v-7l12 -4q12 1 19 1h11v3q0 31 -4 31l-8 2h-19q-13 0 -13 -11zM340 582h12q3 0 4 -9q0 -5 -12 -6q-8 1 -8 4v7q0 2 4 4zM162 571q1 -9 4 -9t3 3q-2 6 -4 6h-3zM162 545v-2q1 0 4 -1l2 3q0 2 -3 2t-3 -2zM261 536h28q1 0 1 -1l3 1h16l9 -1q1 0 1 1l7 -1h25l8 -1
q1 0 1 1q22 0 22 -15v-7q0 -3 -1 -6l1 -2q-1 -3 -1 -6l1 -3q-1 -2 -1 -5q0 -2 1 -2l-1 -6v-12q0 -2 -3 -2h-8q-1 0 -1 1l-3 -1q-1 0 -1 1q-5 -1 -6 -1l-44 1q-1 0 -1 -1l-7 1h-33q-9 0 -9 -8v-7q0 -4 2 -4l-2 -7v-15l-1 -7q5 -4 12 -4q5 0 13 1q7 -1 12 -1l7 1q5 -1 11 -1h3
q10 6 25 23v6q-5 0 -7 1l-3 -1q-7 1 -12 1h-2q-3 0 -5 -1q-3 1 -6 1h-5l1 -7v-4q0 -10 -11 -10q-4 7 -4 25q0 6 5 8h50q11 0 11 -13v-10q0 -2 -30 -33q-10 1 -11 1q-9 -2 -11 -2l-26 4q-18 -3 -20 -3q-9 8 -9 17l1 8q0 1 -1 1l1 7v1q0 10 -1 17q1 28 6 28q21 0 38 -2
q10 2 24 2l3 -2l3 2q21 -1 21 -3l7 1h12q3 0 3 3v25l1 8q-2 5 -4 5h-28l-8 2q-1 0 -1 -2q-14 2 -21 2h-40q-2 0 -4 -4v-6q0 -3 12 -5q2 0 2 1l7 -1h24q2 0 2 -2l3 2q18 -2 26 -2l3 2q2 -2 4 -2l2 2q7 -2 7 -4v-6q0 -3 -2 -3h-17l-8 2q-2 -2 -9 -2l-9 2l-3 -2q-3 2 -4 2
t-1 -2l-7 2h-35q-8 3 -8 13v13q0 7 8 12zM416 536q26 0 26 -14v-4q-6 -9 -18 -9h-13q-11 0 -17 9v9q8 9 22 9zM407 522v-2q11 -1 11 -3q2 1 9 1v4q0 4 -7 5q-13 -1 -13 -5zM143 518v-9q2 0 4 5l-2 7q-2 0 -2 -3zM414 502q17 -2 25 -2q5 -5 5 -11v-75q0 -10 -13 -10l-7 1h-7
l-8 -1q-2 1 -9 1q-1 0 -4 -1l-8 1h-4q-10 -2 -11 -2q-2 0 -4 4v20q0 8 1 22q-1 3 -1 5q2 6 5 6h3q2 0 4 -4v-2q0 -2 -1 -2l1 -3q0 -1 -1 -1l1 -7v-22q1 -3 3 -3h40l9 2v9q0 5 2 7l-2 9v15q0 3 2 5q-2 3 -2 6v20h-8l-3 -33q3 0 3 -2v-3q0 -2 -1 -2l1 -2q0 -2 -1 -4l1 -9v-4
q0 -2 -4 -4h-3q-3 0 -8 3q1 12 1 15q-1 51 -1 55zM143 495l-9 -24q0 -1 2 -4l-2 -8v-5l7 -20l3 -1l1 3v16q0 5 2 13l-2 2q2 8 2 13v14q-2 0 -4 1zM158 484q0 -1 -1 -6h1l3 2q-2 2 -2 4h-1zM172 429q1 -8 1 -11l-1 -3l1 -8q-1 -7 -1 -9q6 -13 13 -13q2 4 9 4h25q5 -4 12 -4
q2 0 8 2q-23 55 -26 56q-5 0 -10 26q-3 0 -11 11q-4 3 -7 3q-13 0 -13 -54zM158 467l-1 -2v-11h2l2 6v5q0 2 -3 2zM203 375q0 -4 27 -4q1 3 1 4q-1 3 -1 4h-2zM495 371h5q2 -1 2 -3l-5 -4h-2q-2 0 -4 4q1 0 4 3zM191 363q1 -3 1 -4l14 2v2q-11 0 -11 1q-3 -1 -4 -1zM500 360
h9q18 0 18 -10q0 -7 15 -11l2 -3q0 -4 -6 -4v-1q0 -1 7 -7v-3q-4 0 -12 -5q-10 8 -31 8l-2 4l2 2h25q0 3 2 5q-13 0 -17 14l-3 1q-14 -1 -22 -1l-3 4q0 5 16 7zM347 334q6 -3 18 -3h17q8 0 9 4q-9 6 -13 6h-2q-29 -1 -29 -7zM311 332q0 -3 -4 -8q0 -3 2 -3h6l7 2q-7 5 -7 9
h-4zM325 325v-2q3 0 5 1q3 -1 4 -1l2 2h-11zM219 319q13 0 13 -2q2 0 2 2q13 -3 16 -3l2 3v1l-7 1h-24q-2 0 -2 -2zM490 319h1q42 -5 42 -11v-2l-2 -7q6 -2 6 -8q-4 -3 -6 -3q-5 0 -38 4l-15 -7q-3 2 -6 2v1q9 5 17 15q18 -1 23 -1v1q0 3 -7 5q-9 -3 -16 -3q-6 0 -9 5v3
q3 6 10 6zM285 317v-1q0 -3 4 -3q5 0 29 1v2q-3 0 -33 1zM320 312v-2h6v2h-6zM110 301v-4h11v1q0 2 -4 4zM538 276q2 0 4 -4q0 -2 -4 -4h-3q-7 0 -12 1q-7 -1 -14 -1h-12v2l19 4q4 0 8 -2q7 4 14 4zM201 258l2 -1h3q10 5 10 6h-11q-2 0 -4 -5zM232 221v-3q8 -6 10 -6
q11 4 11 16q0 11 14 11q1 2 1 4q0 9 -10 16h-2q-8 -14 -20 -20q0 -5 -4 -18zM527 257h4q2 0 4 -5q0 -2 -2 -2h-6l-7 1v4zM134 250q-3 0 -6 -33q-9 -10 -13 -10q-2 0 -14 1q-15 -6 -15 -15v-3q3 -8 20 -16h1q2 19 7 19h4q4 0 5 -27q22 -29 39 -29h17l6 1v3q-10 5 -30 8
q0 1 -16 12q-13 11 -13 40q0 13 17 13q0 -1 2 -4q-2 -5 -2 -9v-4q0 -2 14 -5q6 -20 9 -20q12 -13 19 -15l2 3q-10 12 -10 15q3 0 3 3q11 -10 15 -10h1l6 9h8l14 -9h8q0 7 40 11q23 -2 35 -13q5 -7 5 -13h-1q1 -2 1 -4q5 0 10 12v6q-3 0 -3 1l-3 -1h-1q-3 0 -26 14l-13 4h-13
q-8 0 -9 4q0 3 6 4q4 0 29 -3q2 7 5 7h2l7 -1q0 10 -18 10h-9q-9 -7 -12 -7l-1 2v5q5 6 5 9h-1q-6 0 -11 -9q-11 0 -20 -13q-7 -1 -11 -1q-2 3 -2 4l4 5v3q0 3 -14 7h-11q-3 -7 -7 -32h-1q-2 0 -7 9v4q6 29 15 29h17q2 0 2 2v18q0 3 -9 5q-7 -1 -17 -14q-10 0 -19 -15
q-4 0 -10 19q-8 0 -25 11q-4 3 -7 3zM352 246h17q2 -1 2 -3q0 -4 -24 -11q-20 1 -20 4q12 7 25 10zM435 234v-2l9 -2h2v2q0 3 -7 4q-3 -2 -4 -2zM482 223q44 -8 44 -24q-4 -24 -8 -24q-9 4 -9 10t9 15v1q-37 14 -39 18v2q0 2 3 2zM74 179v-9q4 -13 4 -21v-11h5q9 0 13 -10
q2 0 14 9q13 -2 22 -13l29 -9q1 0 15 -3q15 2 27 7h4q5 0 13 -2q4 3 8 3h2q8 0 19 -10q8 -5 12 -5l2 3q0 17 -38 22q-9 -2 -12 -3q-3 0 -3 1q-16 -1 -23 -1h-15q-30 0 -40 14q-6 0 -13 12h-4q-5 -5 -8 -5q-12 0 -15 12q-3 0 -14 18q-3 1 -4 1zM202 148q3 0 3 -2q4 0 48 7h3
q16 -3 23 -9v-2l-3 -1q-4 0 -9 4h-11v-1q0 -4 25 -13q0 -3 2 -3h2q5 10 7 10h4v6l-3 4v1q0 1 11 6l1 2q-7 0 -18 10q-5 1 -9 4h-11q-65 -16 -65 -23zM369 155q11 -7 11 -9v-1q0 -3 -3 -3h-1q-10 5 -11 10zM465 153q0 -10 4 -11h4l2 7q-3 0 -3 4h-7zM449 144v-6h1v6h-1z
M417 141v-10q0 -3 3 -3h2q3 0 3 3v2q0 8 -8 8zM360 122v-3q1 -3 3 -3h8v4q0 3 -2 3h-2zM312 120q0 -8 -9 -14v-1q0 -3 2 -3h3q5 3 10 11q-3 0 -4 7h-2zM462 113v-5l6 -2q0 2 1 2q-1 2 -1 5h-6zM424 95q0 -8 20 -23h6q0 4 8 11v4q-15 2 -15 7v7l1 3q-7 4 -13 4q-7 -3 -7 -13z
M365 104v-2q1 -5 6 -8h3v1q-3 9 -5 9h-4zM413 73q0 -2 -4 -7v-8q3 0 19 -8q0 3 1 5q-1 5 -9 14v4h-7zM286 55l-1 -2v-7h7q0 3 1 5zM236 37q2 -2 2 -4h4q10 6 10 9v1q-2 0 -5 1q-4 0 -11 -7z" />
    <glyph glyph-name="uni0000" horiz-adv-x="45" 
 />
    <glyph glyph-name="uni0000" horiz-adv-x="45" 
 />
    <glyph glyph-name="nonmarkingreturn" horiz-adv-x="45" 
 />
    <glyph glyph-name="space" unicode=" " horiz-adv-x="258" 
 />
    <glyph glyph-name="space" unicode="&#xa0;" horiz-adv-x="258" 
 />
    <glyph glyph-name="exclam" unicode="!" horiz-adv-x="205" 
d="M80 0q-33 0 -56.5 23.5t-23.5 56.5t23.5 56.5t56.5 23.5t56.5 -23.5t23.5 -56.5t-23.5 -56.5t-56.5 -23.5zM144 256h-128v384h128v-384z" />
    <glyph glyph-name="quotedbl" unicode="&#x22;" horiz-adv-x="429" 
d="M128 512h-128v256h128v-256zM384 512h-128v256h128v-256z" />
    <glyph glyph-name="numbersign" unicode="#" 
d="M256 512h128v128h128v-128h128v-128h-128v-128h128v-128h-128v-128h-128v128h-128v-128h-128v128h-128v128h128v128h-128v128h128v128h128v-128zM384 384h-128v-128h128v128z" />
    <glyph glyph-name="dollar" unicode="$" horiz-adv-x="1005" 
d="M512 640v128h128v-128h256v-128h-384q-27 0 -45.5 -18.5t-18.5 -45.5t18.5 -45.5t45.5 -18.5h256q80 0 136 -56t56 -136t-56 -136t-136 -56h-128v-128h-128v128h-512v128h768q27 0 45.5 18.5t18.5 45.5t-18.5 45.5t-45.5 18.5h-256q-80 0 -136 56t-56 136t56 136t136 56z
" />
    <glyph glyph-name="percent" unicode="%" horiz-adv-x="557" 
d="M483 640l-355 -640h-128l355 640h128zM432 0q-33 0 -56.5 23.5t-23.5 56.5t23.5 56.5t56.5 23.5t56.5 -23.5t23.5 -56.5t-23.5 -56.5t-56.5 -23.5zM80 480q-33 0 -56.5 23.5t-23.5 56.5t23.5 56.5t56.5 23.5t56.5 -23.5t23.5 -56.5t-23.5 -56.5t-56.5 -23.5z" />
    <glyph glyph-name="ampersand" unicode="&#x26;" horiz-adv-x="877" 
d="M448 384q27 0 45.5 18.5t18.5 45.5t-18.5 45.5t-45.5 18.5h-256q-27 0 -45.5 -18.5t-18.5 -45.5t18.5 -45.5t45.5 -18.5h256zM630 256q10 -30 10 -64q0 -80 -56 -136t-136 -56h-256q-80 0 -136 56t-56 136q0 74 48 128q-48 54 -48 128q0 80 56 136t136 56h256
q80 0 136 -56t56 -136q0 -34 -10 -64h202v-128h-202zM448 256h-256q-27 0 -45.5 -18.5t-18.5 -45.5t18.5 -45.5t45.5 -18.5h256q27 0 45.5 18.5t18.5 45.5t-18.5 45.5t-45.5 18.5z" />
    <glyph glyph-name="quotesingle" unicode="'" horiz-adv-x="173" 
d="M128 512h-128v256h128v-256z" />
    <glyph glyph-name="parenleft" unicode="(" horiz-adv-x="301" 
d="M0 768h256v-128h-128v-640h128v-128h-256v896z" />
    <glyph glyph-name="parenright" unicode=")" horiz-adv-x="301" 
d="M128 640h-128v128h256v-896h-256v128h128v640z" />
    <glyph glyph-name="asterisk" unicode="*" horiz-adv-x="435" 
d="M259 456v-72h-128v72l-59 -40l-72 106l80 54l-80 54l72 106l59 -40v72h128v-72l59 40l72 -106l-80 -54l80 -54l-72 -106z" />
    <glyph glyph-name="plus" unicode="+" 
d="M384 118v-118h-128v118h128zM256 118v138h-256v128h256v256h128v-256h256v-128h-256v-138h-128z" />
    <glyph glyph-name="comma" unicode="," horiz-adv-x="189" 
d="M128 -64h-128l16 256h128z" />
    <glyph glyph-name="hyphen" unicode="-" 
d="M640 256h-640v128h640v-128z" />
    <glyph glyph-name="period" unicode="." horiz-adv-x="205" 
d="M80 0q-33 0 -56.5 23.5t-23.5 56.5t23.5 56.5t56.5 23.5t56.5 -23.5t23.5 -56.5t-23.5 -56.5t-56.5 -23.5z" />
    <glyph glyph-name="slash" unicode="/" horiz-adv-x="528" 
d="M483 640l-355 -640h-128l355 640h128z" />
    <glyph glyph-name="zero" unicode="0" 
d="M320 0q-133 0 -226.5 93.5t-93.5 226.5t93.5 226.5t226.5 93.5t226.5 -93.5t93.5 -226.5t-93.5 -226.5t-226.5 -93.5zM320 128q80 0 136 56t56 136t-56 136t-136 56t-136 -56t-56 -136t56 -136t136 -56zM319 239q-33 0 -56.5 23.5t-23.5 56.5t23.5 56.5t56.5 23.5
t56.5 -23.5t23.5 -56.5t-23.5 -56.5t-56.5 -23.5z" />
    <glyph glyph-name="one" unicode="1" horiz-adv-x="173" 
d="M128 0h-128v640h128v-640z" />
    <glyph glyph-name="two" unicode="2" horiz-adv-x="1005" 
d="M960 128v-128h-960v192q0 80 56 136t136 56h256q27 0 45.5 18.5t18.5 45.5t-18.5 45.5t-45.5 18.5h-384v128h384q80 0 136 -56t56 -136t-56 -136t-136 -56h-256q-27 0 -45.5 -18.5t-18.5 -45.5v-64h832z" />
    <glyph glyph-name="three" unicode="3" 
d="M448 0h-448v128h448q27 0 45.5 18.5t18.5 45.5t-18.5 45.5t-45.5 18.5h-160v128h160q27 0 45.5 18.5t18.5 45.5t-18.5 45.5t-45.5 18.5h-448v128h448q80 0 136 -56t56 -136q0 -74 -48 -128q48 -54 48 -128q0 -80 -56 -136t-136 -56z" />
    <glyph glyph-name="four" unicode="4" 
d="M0 256v384h128v-256h384v256h128v-640h-128v256h-512z" />
    <glyph glyph-name="five" unicode="5" horiz-adv-x="1005" 
d="M960 640v-128h-832v-64q0 -27 18.5 -45.5t45.5 -18.5h256q80 0 136 -56t56 -136t-56 -136t-136 -56h-384v128h384q27 0 45.5 18.5t18.5 45.5t-18.5 45.5t-45.5 18.5h-256q-80 0 -136 56t-56 136v192h960z" />
    <glyph glyph-name="six" unicode="6" 
d="M128 256v-64q0 -27 18.5 -45.5t45.5 -18.5h256q27 0 45.5 18.5t18.5 45.5t-18.5 45.5t-45.5 18.5h-320zM0 448q0 80 56 136t136 56h384v-128h-384q-27 0 -45.5 -18.5t-18.5 -45.5v-64h320q80 0 136 -56t56 -136t-56 -136t-136 -56h-256q-80 0 -136 56t-56 136v256z" />
    <glyph glyph-name="seven" unicode="7" 
d="M442 512h-442v128h640l-352 -640h-128z" />
    <glyph glyph-name="eight" unicode="8" 
d="M448 256h-256q-27 0 -45.5 -18.5t-18.5 -45.5t18.5 -45.5t45.5 -18.5h256q27 0 45.5 18.5t18.5 45.5t-18.5 45.5t-45.5 18.5zM448 384q27 0 45.5 18.5t18.5 45.5t-18.5 45.5t-45.5 18.5h-256q-27 0 -45.5 -18.5t-18.5 -45.5t18.5 -45.5t45.5 -18.5h256zM592 320
q48 -54 48 -128q0 -80 -56 -136t-136 -56h-256q-80 0 -136 56t-56 136q0 74 48 128q-48 54 -48 128q0 80 56 136t136 56h256q80 0 136 -56t56 -136q0 -74 -48 -128z" />
    <glyph glyph-name="nine" unicode="9" 
d="M512 384v64q0 27 -18.5 45.5t-45.5 18.5h-256q-27 0 -45.5 -18.5t-18.5 -45.5t18.5 -45.5t45.5 -18.5h320zM640 192q0 -80 -56 -136t-136 -56h-384v128h384q27 0 45.5 18.5t18.5 45.5v64h-320q-80 0 -136 56t-56 136t56 136t136 56h256q80 0 136 -56t56 -136v-256z" />
    <glyph glyph-name="colon" unicode=":" horiz-adv-x="205" 
d="M80 0q-33 0 -56.5 23.5t-23.5 56.5t23.5 56.5t56.5 23.5t56.5 -23.5t23.5 -56.5t-23.5 -56.5t-56.5 -23.5zM80 352q-33 0 -56.5 23.5t-23.5 56.5t23.5 56.5t56.5 23.5t56.5 -23.5t23.5 -56.5t-23.5 -56.5t-56.5 -23.5z" />
    <glyph glyph-name="semicolon" unicode=";" horiz-adv-x="205" 
d="M80 352q-33 0 -56.5 23.5t-23.5 56.5t23.5 56.5t56.5 23.5t56.5 -23.5t23.5 -56.5t-23.5 -56.5t-56.5 -23.5zM128 -64h-128l16 256h128z" />
    <glyph glyph-name="less" unicode="&#x3c;" horiz-adv-x="717" 
d="M672 0l-672 320l672 320v-144l-368 -176l368 -176v-144z" />
    <glyph glyph-name="equal" unicode="=" 
d="M640 384h-640v128h640v-128zM640 128h-640v128h640v-128z" />
    <glyph glyph-name="greater" unicode="&#x3e;" horiz-adv-x="717" 
d="M0 0v144l368 176l-368 176v144l672 -320z" />
    <glyph glyph-name="question" unicode="?" horiz-adv-x="621" 
d="M256 0q-33 0 -56.5 23.5t-23.5 56.5t23.5 56.5t56.5 23.5t56.5 -23.5t23.5 -56.5t-23.5 -56.5t-56.5 -23.5zM384 512h-384v128h384q80 0 136 -56t56 -136t-56 -136t-136 -56h-64v-32h-128v160h192q27 0 45.5 18.5t18.5 45.5t-18.5 45.5t-45.5 18.5z" />
    <glyph glyph-name="at" unicode="@" horiz-adv-x="941" 
d="M320 128h576v-128h-576q-133 0 -226.5 93.5t-93.5 226.5t93.5 226.5t226.5 93.5t227 -93q70 -71 93 -163v-128h-384v128h246q-14 40 -46 72q-56 56 -136 56t-136 -56t-56 -136t56 -136t136 -56z" />
    <glyph glyph-name="A" unicode="A" 
d="M0 0l320 672l320 -672h-144l-176 368l-176 -368h-144z" />
    <glyph glyph-name="B" unicode="B" 
d="M448 0h-448v640h448q80 0 136 -56t56 -136q0 -74 -48 -128q48 -54 48 -128q0 -80 -56 -136t-136 -56zM128 128h320q27 0 45.5 18.5t18.5 45.5t-18.5 45.5t-45.5 18.5h-160v128h160q27 0 45.5 18.5t18.5 45.5t-18.5 45.5t-45.5 18.5h-320v-384z" />
    <glyph glyph-name="C" unicode="C" 
d="M320 128h320v-128h-320q-133 0 -226.5 93.5t-93.5 226.5t93.5 226.5t226.5 93.5h320v-128h-320q-80 0 -136 -56t-56 -136t56 -136t136 -56z" />
    <glyph glyph-name="D" unicode="D" horiz-adv-x="813" 
d="M448 0h-448v640h448q133 0 226.5 -93.5t93.5 -226.5t-93.5 -226.5t-226.5 -93.5zM128 128h320q80 0 136 56t56 136t-56 136t-136 56h-320v-384z" />
    <glyph glyph-name="E" unicode="E" 
d="M640 256h-352v128h352v-128zM640 640v-128h-512v-384h512v-128h-640v640h640z" />
    <glyph glyph-name="F" unicode="F" 
d="M640 256h-352v128h352v-128zM640 640v-128h-512v-512h-128v640h640z" />
    <glyph glyph-name="G" unicode="G" horiz-adv-x="872" 
d="M724 -11l-6 11h-398q-133 0 -226.5 93.5t-93.5 226.5t93.5 226.5t226.5 93.5h512l-64 -128h-448q-80 0 -136 -56t-56 -136t56 -136t136 -56h327l-71 128h-256v128h320l181 -333l98 -179h-130z" />
    <glyph glyph-name="H" unicode="H" 
d="M128 256v-256h-128v640h128v-256h384v256h128v-640h-128v256h-384z" />
    <glyph glyph-name="I" unicode="I" horiz-adv-x="173" 
d="M128 0h-128v640h128v-640z" />
    <glyph glyph-name="J" unicode="J" horiz-adv-x="429" 
d="M256 640h128v-640q0 -80 -56 -136t-136 -56t-136 56t-56 136h128q0 -27 18.5 -45.5t45.5 -18.5t45.5 18.5t18.5 45.5v640z" />
    <glyph glyph-name="K" unicode="K" 
d="M128 229v-229h-128v640h128v-229l320 229h192l-448 -320l448 -320h-192z" />
    <glyph glyph-name="L" unicode="L" 
d="M128 128h512v-128h-640v640h128v-512z" />
    <glyph glyph-name="M" unicode="M" horiz-adv-x="813" 
d="M128 384v-384h-128v640h128l256 -480l256 480h128v-640h-128v384l-192 -384h-128z" />
    <glyph glyph-name="N" unicode="N" 
d="M128 448v-448h-128v640h128l384 -448v448h128v-640h-128z" />
    <glyph glyph-name="O" unicode="O" 
d="M320 0q-133 0 -226.5 93.5t-93.5 226.5t93.5 226.5t226.5 93.5t226.5 -93.5t93.5 -226.5t-93.5 -226.5t-226.5 -93.5zM320 128q80 0 136 56t56 136t-56 136t-136 56t-136 -56t-56 -136t56 -136t136 -56z" />
    <glyph glyph-name="P" unicode="P" 
d="M128 0h-128v640h448q80 0 136 -56t56 -136t-56 -136t-136 -56h-160v128h160q27 0 45.5 18.5t18.5 45.5t-18.5 45.5t-45.5 18.5h-320v-512z" />
    <glyph glyph-name="Q" unicode="Q" 
d="M361 132l-105 188h128l74 -134q54 56 54 134q0 80 -56 136t-136 56t-136 -56t-56 -136t56 -136t136 -56q21 0 41 4zM505 -128l-80 144q-49 -16 -105 -16q-133 0 -226.5 93.5t-93.5 226.5t93.5 226.5t226.5 93.5t226.5 -93.5t93.5 -226.5t-93 -226q-12 -12 -25 -23
l111 -199h-128z" />
    <glyph glyph-name="R" unicode="R" 
d="M435 0l-211 384h224q27 0 45.5 18.5t18.5 45.5t-18.5 45.5t-45.5 18.5h-320v-512h-128v640h448q80 0 136 -56t56 -136t-56 -136t-136 -56h-28l142 -256h-127z" />
    <glyph glyph-name="S" unicode="S" horiz-adv-x="1005" 
d="M768 0h-768v128h768q27 0 45.5 18.5t18.5 45.5t-18.5 45.5t-45.5 18.5h-256q-80 0 -136 56t-56 136t56 136t136 56h384v-128h-384q-27 0 -45.5 -18.5t-18.5 -45.5t18.5 -45.5t45.5 -18.5h256q80 0 136 -56t56 -136t-56 -136t-136 -56z" />
    <glyph glyph-name="T" unicode="T" 
d="M384 512v-512h-128v512h-256v128h640v-128h-256z" />
    <glyph glyph-name="U" unicode="U" 
d="M0 320v320h128v-320q0 -80 56 -136t136 -56t136 56t56 136v320h128v-320q0 -133 -93.5 -226.5t-226.5 -93.5t-226.5 93.5t-93.5 226.5z" />
    <glyph glyph-name="V" unicode="V" 
d="M0 640h144l176 -368l176 368h144l-320 -672z" />
    <glyph glyph-name="W" unicode="W" horiz-adv-x="1069" 
d="M512 371l-192 -403l-320 672h144l176 -368l120 251l72 149l72 -149l120 -251l176 368h144l-320 -672z" />
    <glyph glyph-name="X" unicode="X" 
d="M240 320l-240 320h160l160 -213l160 213h160l-240 -320l240 -320h-160l-160 213l-160 -213h-160z" />
    <glyph glyph-name="Y" unicode="Y" 
d="M256 300l-256 340h160l160 -213l160 213h160l-256 -339v-301h-128v300z" />
    <glyph glyph-name="Z" unicode="Z" horiz-adv-x="589" 
d="M282 512h-282v128h480l-282 -512h346v-128h-544z" />
    <glyph glyph-name="bracketleft" unicode="[" horiz-adv-x="301" 
d="M0 768h256v-128h-128v-640h128v-128h-256v896z" />
    <glyph glyph-name="backslash" unicode="\" horiz-adv-x="528" 
d="M0 640h128l355 -640h-128z" />
    <glyph glyph-name="bracketright" unicode="]" horiz-adv-x="301" 
d="M128 640h-128v128h256v-896h-256v128h128v640z" />
    <glyph glyph-name="asciicircum" unicode="^" horiz-adv-x="429" 
d="M256 896l128 -256h-128l-64 128l-64 -128h-128l128 256h128z" />
    <glyph glyph-name="underscore" unicode="_" 
d="M640 -192h-640v128h640v-128z" />
    <glyph glyph-name="grave" unicode="`" horiz-adv-x="301" 
d="M256 640h-128l-128 256h128z" />
    <glyph glyph-name="a" unicode="a" 
d="M0 0l320 672l320 -672h-144l-176 368l-176 -368h-144z" />
    <glyph glyph-name="b" unicode="b" 
d="M448 0h-448v640h448q80 0 136 -56t56 -136q0 -74 -48 -128q48 -54 48 -128q0 -80 -56 -136t-136 -56zM128 128h320q27 0 45.5 18.5t18.5 45.5t-18.5 45.5t-45.5 18.5h-160v128h160q27 0 45.5 18.5t18.5 45.5t-18.5 45.5t-45.5 18.5h-320v-384z" />
    <glyph glyph-name="c" unicode="c" horiz-adv-x="877" 
d="M320 128h448v-128h-448q-133 0 -226.5 93.5t-93.5 226.5t93.5 226.5t226.5 93.5h512l-64 -128h-448q-80 0 -136 -56t-56 -136t56 -136t136 -56z" />
    <glyph glyph-name="d" unicode="d" horiz-adv-x="813" 
d="M448 0h-448v640h448q133 0 226.5 -93.5t93.5 -226.5t-93.5 -226.5t-226.5 -93.5zM128 128h320q80 0 136 56t56 136t-56 136t-136 56h-320v-384z" />
    <glyph glyph-name="e" unicode="e" horiz-adv-x="1069" 
d="M1024 256h-736v128h736v-128zM640 640v-128h-512v-384h512v-128h-640v640h640z" />
    <glyph glyph-name="f" unicode="f" 
d="M640 256h-352v128h352v-128zM0 640h640v-128h-512v-768h-128v896z" />
    <glyph glyph-name="g" unicode="g" horiz-adv-x="872" 
d="M731 -24l-13 24h-398q-133 0 -226.5 93.5t-93.5 226.5t93.5 226.5t226.5 93.5h512l-64 -128h-448q-80 0 -136 -56t-56 -136t56 -136t136 -56h327l-71 128h-256v128h320l192 -353l192 -351h-128z" />
    <glyph glyph-name="h" unicode="h" 
d="M128 256v-256h-128v640h128v-256h384v256h128v-640h-128v256h-384z" />
    <glyph glyph-name="i" unicode="i" horiz-adv-x="173" 
d="M128 0h-128v640h128v-640z" />
    <glyph glyph-name="j" unicode="j" horiz-adv-x="429" 
d="M256 640h128v-768q0 -80 -56 -136t-136 -56t-136 56t-56 136h128q0 -27 18.5 -45.5t45.5 -18.5t45.5 18.5t18.5 45.5v768z" />
    <glyph glyph-name="k" unicode="k" 
d="M128 229v-229h-128v640h128v-229l320 229h192l-448 -320l448 -320h-192z" />
    <glyph glyph-name="l" unicode="l" 
d="M128 128h512v-128h-640v640h128v-512z" />
    <glyph glyph-name="m" unicode="m" horiz-adv-x="813" 
d="M128 384v-640h-128v896h128l256 -480l256 480h128v-640h-128v384l-192 -384h-128z" />
    <glyph glyph-name="n" unicode="n" 
d="M128 448v-704h-128v896h128l384 -448v768h128v-960h-128z" />
    <glyph glyph-name="o" unicode="o" 
d="M320 0q-133 0 -226.5 93.5t-93.5 226.5t93.5 226.5t226.5 93.5t226.5 -93.5t93.5 -226.5t-93.5 -226.5t-226.5 -93.5zM320 128q80 0 136 56t56 136t-56 136t-136 56t-136 -56t-56 -136t56 -136t136 -56z" />
    <glyph glyph-name="p" unicode="p" 
d="M128 -256h-128v896h448q80 0 136 -56t56 -136t-56 -136t-136 -56h-160v128h160q27 0 45.5 18.5t18.5 45.5t-18.5 45.5t-45.5 18.5h-320v-768z" />
    <glyph glyph-name="q" unicode="q" 
d="M361 132l-105 188h128l74 -134q54 56 54 134q0 80 -56 136t-136 56t-136 -56t-56 -136t56 -136t136 -56q21 0 41 4zM454 -36l-29 52q-49 -16 -105 -16q-133 0 -226.5 93.5t-93.5 226.5t93.5 226.5t226.5 93.5t226.5 -93.5t93.5 -226.5t-93 -226q-12 -12 -25 -23l25 -45
l157 -282h-128z" />
    <glyph glyph-name="r" unicode="r" horiz-adv-x="749" 
d="M128 0h-128v640h448q80 0 136 -56t56 -136t-56 -136t-136 -56h-28l284 -512h-128l-352 640h224q27 0 45.5 18.5t18.5 45.5t-18.5 45.5t-45.5 18.5h-320v-512z" />
    <glyph glyph-name="s" unicode="s" horiz-adv-x="1005" 
d="M768 0h-768v128h768q27 0 45.5 18.5t18.5 45.5t-18.5 45.5t-45.5 18.5h-256q-80 0 -136 56t-56 136t56 136t136 56h384v-128h-384q-27 0 -45.5 -18.5t-18.5 -45.5t18.5 -45.5t45.5 -18.5h256q80 0 136 -56t56 -136t-56 -136t-136 -56z" />
    <glyph glyph-name="t" unicode="t" 
d="M384 512v-768h-128v768h-256v128h640v-128h-256z" />
    <glyph glyph-name="u" unicode="u" 
d="M0 320v320h128v-320q0 -80 56 -136t136 -56t136 56t56 136v640h128v-640q0 -133 -93.5 -226.5t-226.5 -93.5t-226.5 93.5t-93.5 226.5z" />
    <glyph glyph-name="v" unicode="v" 
d="M0 640h144l176 -368l176 368h144l-320 -672z" />
    <glyph glyph-name="w" unicode="w" horiz-adv-x="1069" 
d="M512 371l-192 -403l-320 672h144l176 -368l120 251l72 149l72 -149l120 -251l176 368h144l-320 -672z" />
    <glyph glyph-name="x" unicode="x" 
d="M240 320l-240 320h160l160 -213l160 213h160l-240 -320l240 -320h-160l-160 213l-160 -213h-160z" />
    <glyph glyph-name="y" unicode="y" 
d="M256 300l-256 340h160l160 -213l160 213h160l-256 -339v-557h-128v556z" />
    <glyph glyph-name="z" unicode="z" horiz-adv-x="941" 
d="M282 512h-282v128h480l-282 -512h698v-128h-896z" />
    <glyph glyph-name="braceleft" unicode="{" 
d="M0 0l320 672l320 -672h-640zM435 128l-115 240l-115 -240h230z" />
    <glyph glyph-name="bar" unicode="|" horiz-adv-x="173" 
d="M128 -128h-128v896h128v-896z" />
    <glyph glyph-name="braceright" unicode="}" 
d="M512 512h-384v-384h384v384zM640 640v-640h-640v640h640z" />
    <glyph glyph-name="asciitilde" unicode="~" 
d="M640 256h-640v128h640v-128z" />
    <glyph glyph-name="quoteleft" unicode="&#x2018;" horiz-adv-x="173" 
d="M128 512h-128v256h128v-256z" />
    <glyph glyph-name="quoteright" unicode="&#x2019;" horiz-adv-x="173" 
d="M128 512h-128v256h128v-256z" />
    <glyph glyph-name="quotedblleft" unicode="&#x201c;" horiz-adv-x="429" 
d="M128 512h-128v256h128v-256zM384 512h-128v256h128v-256z" />
    <glyph glyph-name="quotedblright" unicode="&#x201d;" horiz-adv-x="429" 
d="M128 512h-128v256h128v-256zM384 512h-128v256h128v-256z" />
    <glyph glyph-name="sterling" unicode="&#xa3;" horiz-adv-x="941" 
d="M896 128v-128h-768v256h-128v128h134q17 92 88 163q93 93 226 93h448v-128h-448q-80 0 -136 -56q-32 -32 -46 -72h374v-128h-384v-128h640z" />
    <glyph glyph-name="yen" unicode="&#xa5;" 
d="M256 300l-256 340h160l160 -213l160 213h160l-256 -339v-45h128v-128h-128v-384h-128v384h-128v128h128v44z" />
    <glyph glyph-name="Euro" unicode="&#x20ac;" horiz-adv-x="941" 
d="M448 128h448v-128h-448q-133 0 -226 94q-71 70 -88 162h-134v128h134q17 92 88 163q93 93 226 93h448v-128h-448q-80 0 -136 -56q-32 -32 -46 -72h470v-128h-470q14 -40 46 -72q56 -56 136 -56z" />
    <glyph glyph-name="cent" unicode="&#xa2;" horiz-adv-x="557" 
d="M384 0v-128h-128v134q-92 17 -162 88q-94 93 -94 226t94 227q70 70 162 87v134h128v-128h128v-128h-192q-80 0 -136 -56t-56 -136t56 -136t136 -56h192v-128h-128z" />
    <glyph glyph-name="divide" unicode="&#xf7;" 
d="M640 256h-640v128h640v-128zM320 0q-33 0 -56.5 23.5t-23.5 56.5t23.5 56.5t56.5 23.5t56.5 -23.5t23.5 -56.5t-23.5 -56.5t-56.5 -23.5zM320 480q-33 0 -56.5 23.5t-23.5 56.5t23.5 56.5t56.5 23.5t56.5 -23.5t23.5 -56.5t-23.5 -56.5t-56.5 -23.5z" />
    <glyph glyph-name="Yacute" unicode="&#xdd;" 
d="M256 300l-256 340h160l160 -213l160 213h160l-256 -339v-301h-128v300zM186 706l-7 59l295 34l7 -59z" />
    <glyph glyph-name="yacute" unicode="&#xfd;" 
d="M256 300l-256 340h160l160 -213l160 213h160l-256 -339v-557h-128v556zM186 706l-7 59l295 34l7 -59z" />
    <glyph glyph-name="Ygrave" unicode="&#x1ef2;" 
d="M256 300l-256 340h160l160 -213l160 213h160l-256 -339v-301h-128v300zM474 706l-295 34l7 59l295 -34z" />
    <glyph glyph-name="ygrave" unicode="&#x1ef3;" 
d="M256 300l-256 340h160l160 -213l160 213h160l-256 -339v-557h-128v556zM474 706l-295 34l7 59l295 -34z" />
    <glyph glyph-name="uni1EF6" unicode="&#x1ef6;" 
d="M256 300l-256 340h160l160 -213l160 213h160l-256 -339v-301h-128v300zM367 806h-171v45h171q28 0 47.5 -19.5t19.5 -47.5t-19.5 -47.5t-47.5 -19.5h-22v-11h-44v56h66q10 0 16.5 6t6.5 16q0 9 -6.5 15.5t-16.5 6.5z" />
    <glyph glyph-name="uni1EF7" unicode="&#x1ef7;" 
d="M256 300l-256 340h160l160 -213l160 213h160l-256 -339v-557h-128v556zM367 806h-171v45h171q28 0 47.5 -19.5t19.5 -47.5t-19.5 -47.5t-47.5 -19.5h-22v-11h-44v56h66q10 0 16.5 6t6.5 16q0 9 -6.5 15.5t-16.5 6.5z" />
    <glyph glyph-name="uni1EF8" unicode="&#x1ef8;" 
d="M256 300l-256 340h160l160 -213l160 213h160l-256 -339v-301h-128v300zM315 772q0 -9 6.5 -15.5t15.5 -6.5q10 0 16.5 6.5t6.5 15.5v216h44v-216q0 -27 -19.5 -46.5t-47.5 -19.5q-27 0 -46.5 19.5t-19.5 46.5v67q0 9 -6.5 15.5t-15.5 6.5q-10 0 -16.5 -6.5t-6.5 -15.5
v-67h-43l-1 45v22q0 28 19.5 47.5t47.5 19.5q27 0 46.5 -19.5t19.5 -47.5v-67z" />
    <glyph glyph-name="uni1EF9" unicode="&#x1ef9;" 
d="M256 300l-256 340h160l160 -213l160 213h160l-256 -339v-557h-128v556zM315 772q0 -9 6.5 -15.5t15.5 -6.5q10 0 16.5 6.5t6.5 15.5v216h44v-216q0 -27 -19.5 -46.5t-47.5 -19.5q-27 0 -46.5 19.5t-19.5 46.5v67q0 9 -6.5 15.5t-15.5 6.5q-10 0 -16.5 -6.5t-6.5 -15.5
v-67h-43l-1 45v22q0 28 19.5 47.5t47.5 19.5q27 0 46.5 -19.5t19.5 -47.5v-67z" />
    <glyph glyph-name="uni1EF4" unicode="&#x1ef4;" 
d="M256 300l-256 340h160l160 -213l160 213h160l-256 -339v-301h-128v300zM319 -218q-35 0 -59.5 25t-24.5 59q0 35 24.5 59.5t59.5 24.5q34 0 59 -24.5t25 -59.5q0 -34 -25 -59t-59 -25zM319 -173q17 0 29.5 12t12.5 29t-12.5 29.5t-29.5 12.5t-29 -12.5t-12 -29.5t12 -29
t29 -12z" />
    <glyph glyph-name="uni1EF5" unicode="&#x1ef5;" 
d="M256 300l-256 340h160l160 -213l160 213h160l-256 -339v-557h-128v556zM495 -253q-35 0 -59.5 25t-24.5 59q0 35 24.5 59.5t59.5 24.5q34 0 59 -24.5t25 -59.5q0 -34 -25 -59t-59 -25zM495 -208q17 0 29.5 12t12.5 29t-12.5 29.5t-29.5 12.5t-29 -12.5t-12 -29.5t12 -29
t29 -12z" />
    <glyph glyph-name="Aacute" unicode="&#xc1;" 
d="M0 0l320 672l320 -672h-144l-176 368l-176 -368h-144zM186 706l-7 59l295 34l7 -59z" />
    <glyph glyph-name="aacute" unicode="&#xe1;" 
d="M0 0l320 672l320 -672h-144l-176 368l-176 -368h-144zM186 706l-7 59l295 34l7 -59z" />
    <glyph glyph-name="Agrave" unicode="&#xc0;" 
d="M0 0l320 672l320 -672h-144l-176 368l-176 -368h-144zM474 706l-295 34l7 59l295 -34z" />
    <glyph glyph-name="agrave" unicode="&#xe0;" 
d="M0 0l320 672l320 -672h-144l-176 368l-176 -368h-144zM474 706l-295 34l7 59l295 -34z" />
    <glyph glyph-name="uni1EA2" unicode="&#x1ea2;" 
d="M0 0l320 672l320 -672h-144l-176 368l-176 -368h-144zM367 806h-171v45h171q28 0 47.5 -19.5t19.5 -47.5t-19.5 -47.5t-47.5 -19.5h-22v-11h-44v56h66q10 0 16.5 6t6.5 16q0 9 -6.5 15.5t-16.5 6.5z" />
    <glyph glyph-name="uni1EA3" unicode="&#x1ea3;" 
d="M0 0l320 672l320 -672h-144l-176 368l-176 -368h-144zM367 806h-171v45h171q28 0 47.5 -19.5t19.5 -47.5t-19.5 -47.5t-47.5 -19.5h-22v-11h-44v56h66q10 0 16.5 6t6.5 16q0 9 -6.5 15.5t-16.5 6.5z" />
    <glyph glyph-name="Atilde" unicode="&#xc3;" 
d="M0 0l320 672l320 -672h-144l-176 368l-176 -368h-144zM285 840q0 9 -6.5 15.5t-15.5 6.5q-10 0 -16.5 -6.5t-6.5 -15.5v-216h-44v216q0 27 19.5 46.5t47.5 19.5q27 0 46.5 -19.5t19.5 -46.5v-67q0 -9 6.5 -15.5t15.5 -6.5q10 0 16.5 6.5t6.5 15.5v67h43l1 -45v-22
q0 -28 -19.5 -47.5t-47.5 -19.5q-27 0 -46.5 19.5t-19.5 47.5v67z" />
    <glyph glyph-name="atilde" unicode="&#xe3;" 
d="M0 0l320 672l320 -672h-144l-176 368l-176 -368h-144zM285 840q0 9 -6.5 15.5t-15.5 6.5q-10 0 -16.5 -6.5t-6.5 -15.5v-216h-44v216q0 27 19.5 46.5t47.5 19.5q27 0 46.5 -19.5t19.5 -46.5v-67q0 -9 6.5 -15.5t15.5 -6.5q10 0 16.5 6.5t6.5 15.5v67h43l1 -45v-22
q0 -28 -19.5 -47.5t-47.5 -19.5q-27 0 -46.5 19.5t-19.5 47.5v67z" />
    <glyph glyph-name="uni1EA0" unicode="&#x1ea0;" 
d="M0 0l320 672l320 -672h-144l-176 368l-176 -368h-144zM319 -218q-35 0 -59.5 25t-24.5 59q0 35 24.5 59.5t59.5 24.5q34 0 59 -24.5t25 -59.5q0 -34 -25 -59t-59 -25zM319 -173q17 0 29.5 12t12.5 29t-12.5 29.5t-29.5 12.5t-29 -12.5t-12 -29.5t12 -29t29 -12z" />
    <glyph glyph-name="uni1EA1" unicode="&#x1ea1;" 
d="M0 0l320 672l320 -672h-144l-176 368l-176 -368h-144zM319 -218q-35 0 -59.5 25t-24.5 59q0 35 24.5 59.5t59.5 24.5q34 0 59 -24.5t25 -59.5q0 -34 -25 -59t-59 -25zM319 -173q17 0 29.5 12t12.5 29t-12.5 29.5t-29.5 12.5t-29 -12.5t-12 -29.5t12 -29t29 -12z" />
    <glyph glyph-name="Eacute" unicode="&#xc9;" 
d="M640 256h-352v128h352v-128zM640 640v-128h-512v-384h512v-128h-640v640h640zM186 706l-7 59l295 34l7 -59z" />
    <glyph glyph-name="eacute" unicode="&#xe9;" horiz-adv-x="1069" 
d="M1024 256h-736v128h736v-128zM640 640v-128h-512v-384h512v-128h-640v640h640zM186 706l-7 59l295 34l7 -59z" />
    <glyph glyph-name="Egrave" unicode="&#xc8;" 
d="M640 256h-352v128h352v-128zM640 640v-128h-512v-384h512v-128h-640v640h640zM474 706l-295 34l7 59l295 -34z" />
    <glyph glyph-name="egrave" unicode="&#xe8;" horiz-adv-x="1069" 
d="M1024 256h-736v128h736v-128zM640 640v-128h-512v-384h512v-128h-640v640h640zM474 706l-295 34l7 59l295 -34z" />
    <glyph glyph-name="uni1EBA" unicode="&#x1eba;" 
d="M640 256h-352v128h352v-128zM640 640v-128h-512v-384h512v-128h-640v640h640zM367 806h-171v45h171q28 0 47.5 -19.5t19.5 -47.5t-19.5 -47.5t-47.5 -19.5h-22v-11h-44v56h66q10 0 16.5 6t6.5 16q0 9 -6.5 15.5t-16.5 6.5z" />
    <glyph glyph-name="uni1EBB" unicode="&#x1ebb;" horiz-adv-x="1069" 
d="M1024 256h-736v128h736v-128zM640 640v-128h-512v-384h512v-128h-640v640h640zM367 806h-171v45h171q28 0 47.5 -19.5t19.5 -47.5t-19.5 -47.5t-47.5 -19.5h-22v-11h-44v56h66q10 0 16.5 6t6.5 16q0 9 -6.5 15.5t-16.5 6.5z" />
    <glyph glyph-name="uni1EBC" unicode="&#x1ebc;" 
d="M640 256h-352v128h352v-128zM640 640v-128h-512v-384h512v-128h-640v640h640zM315 772q0 -9 6.5 -15.5t15.5 -6.5q10 0 16.5 6.5t6.5 15.5v216h44v-216q0 -27 -19.5 -46.5t-47.5 -19.5q-27 0 -46.5 19.5t-19.5 46.5v67q0 9 -6.5 15.5t-15.5 6.5q-10 0 -16.5 -6.5
t-6.5 -15.5v-67h-43l-1 45v22q0 28 19.5 47.5t47.5 19.5q27 0 46.5 -19.5t19.5 -47.5v-67z" />
    <glyph glyph-name="uni1EBD" unicode="&#x1ebd;" horiz-adv-x="1069" 
d="M1024 256h-736v128h736v-128zM640 640v-128h-512v-384h512v-128h-640v640h640zM315 772q0 -9 6.5 -15.5t15.5 -6.5q10 0 16.5 6.5t6.5 15.5v216h44v-216q0 -27 -19.5 -46.5t-47.5 -19.5q-27 0 -46.5 19.5t-19.5 46.5v67q0 9 -6.5 15.5t-15.5 6.5q-10 0 -16.5 -6.5
t-6.5 -15.5v-67h-43l-1 45v22q0 28 19.5 47.5t47.5 19.5q27 0 46.5 -19.5t19.5 -47.5v-67z" />
    <glyph glyph-name="uni1EB8" unicode="&#x1eb8;" 
d="M640 256h-352v128h352v-128zM640 640v-128h-512v-384h512v-128h-640v640h640zM319 -218q-35 0 -59.5 25t-24.5 59q0 35 24.5 59.5t59.5 24.5q34 0 59 -24.5t25 -59.5q0 -34 -25 -59t-59 -25zM319 -173q17 0 29.5 12t12.5 29t-12.5 29.5t-29.5 12.5t-29 -12.5t-12 -29.5
t12 -29t29 -12z" />
    <glyph glyph-name="uni1EB9" unicode="&#x1eb9;" horiz-adv-x="1069" 
d="M1024 256h-736v128h736v-128zM640 640v-128h-512v-384h512v-128h-640v640h640zM319 -218q-35 0 -59.5 25t-24.5 59q0 35 24.5 59.5t59.5 24.5q34 0 59 -24.5t25 -59.5q0 -34 -25 -59t-59 -25zM319 -173q17 0 29.5 12t12.5 29t-12.5 29.5t-29.5 12.5t-29 -12.5t-12 -29.5
t12 -29t29 -12z" />
    <glyph glyph-name="Iacute" unicode="&#xcd;" horiz-adv-x="347" 
d="M195 0h-128v640h128v-640zM7 706l-7 59l295 34l7 -59z" />
    <glyph glyph-name="iacute" unicode="&#xed;" horiz-adv-x="347" 
d="M195 0h-128v640h128v-640zM7 706l-7 59l295 34l7 -59z" />
    <glyph glyph-name="Igrave" unicode="&#xcc;" horiz-adv-x="347" 
d="M219 0h-128v640h128v-640zM295 706l-295 34l7 59l295 -34z" />
    <glyph glyph-name="igrave" unicode="&#xec;" horiz-adv-x="347" 
d="M219 0h-128v640h128v-640zM295 706l-295 34l7 59l295 -34z" />
    <glyph glyph-name="uni1EC8" unicode="&#x1ec8;" horiz-adv-x="283" 
d="M185 0h-128v640h128v-640zM171 806h-171v45h171q28 0 47.5 -19.5t19.5 -47.5t-19.5 -47.5t-47.5 -19.5h-22v-11h-44v56h66q10 0 16.5 6t6.5 16q0 9 -6.5 15.5t-16.5 6.5z" />
    <glyph glyph-name="uni1EC9" unicode="&#x1ec9;" horiz-adv-x="283" 
d="M185 0h-128v640h128v-640zM171 806h-171v45h171q28 0 47.5 -19.5t19.5 -47.5t-19.5 -47.5t-47.5 -19.5h-22v-11h-44v56h66q10 0 16.5 6t6.5 16q0 9 -6.5 15.5t-16.5 6.5z" />
    <glyph glyph-name="Itilde" unicode="&#x128;" horiz-adv-x="267" 
d="M192 0h-128v640h128v-640zM133 772q0 -9 6.5 -15.5t15.5 -6.5q10 0 16.5 6.5t6.5 15.5v216h44v-216q0 -27 -19.5 -46.5t-47.5 -19.5q-27 0 -46.5 19.5t-19.5 46.5v67q0 9 -6.5 15.5t-15.5 6.5q-10 0 -16.5 -6.5t-6.5 -15.5v-67h-43l-1 45v22q0 28 19.5 47.5t47.5 19.5
q27 0 46.5 -19.5t19.5 -47.5v-67z" />
    <glyph glyph-name="itilde" unicode="&#x129;" horiz-adv-x="267" 
d="M192 0h-128v640h128v-640zM133 772q0 -9 6.5 -15.5t15.5 -6.5q10 0 16.5 6.5t6.5 15.5v216h44v-216q0 -27 -19.5 -46.5t-47.5 -19.5q-27 0 -46.5 19.5t-19.5 46.5v67q0 9 -6.5 15.5t-15.5 6.5q-10 0 -16.5 -6.5t-6.5 -15.5v-67h-43l-1 45v22q0 28 19.5 47.5t47.5 19.5
q27 0 46.5 -19.5t19.5 -47.5v-67z" />
    <glyph glyph-name="uni1ECA" unicode="&#x1eca;" horiz-adv-x="213" 
d="M147 0h-128v640h128v-640zM84 -218q-35 0 -59.5 25t-24.5 59q0 35 24.5 59.5t59.5 24.5q34 0 59 -24.5t25 -59.5q0 -34 -25 -59t-59 -25zM84 -173q17 0 29.5 12t12.5 29t-12.5 29.5t-29.5 12.5t-29 -12.5t-12 -29.5t12 -29t29 -12z" />
    <glyph glyph-name="uni1ECB" unicode="&#x1ecb;" horiz-adv-x="213" 
d="M147 0h-128v640h128v-640zM84 -218q-35 0 -59.5 25t-24.5 59q0 35 24.5 59.5t59.5 24.5q34 0 59 -24.5t25 -59.5q0 -34 -25 -59t-59 -25zM84 -173q17 0 29.5 12t12.5 29t-12.5 29.5t-29.5 12.5t-29 -12.5t-12 -29.5t12 -29t29 -12z" />
    <glyph glyph-name="Oacute" unicode="&#xd3;" 
d="M320 0q-133 0 -226.5 93.5t-93.5 226.5t93.5 226.5t226.5 93.5t226.5 -93.5t93.5 -226.5t-93.5 -226.5t-226.5 -93.5zM320 128q80 0 136 56t56 136t-56 136t-136 56t-136 -56t-56 -136t56 -136t136 -56zM186 706l-7 59l295 34l7 -59z" />
    <glyph glyph-name="oacute" unicode="&#xf3;" 
d="M320 0q-133 0 -226.5 93.5t-93.5 226.5t93.5 226.5t226.5 93.5t226.5 -93.5t93.5 -226.5t-93.5 -226.5t-226.5 -93.5zM320 128q80 0 136 56t56 136t-56 136t-136 56t-136 -56t-56 -136t56 -136t136 -56zM186 706l-7 59l295 34l7 -59z" />
    <glyph glyph-name="Ograve" unicode="&#xd2;" 
d="M320 0q-133 0 -226.5 93.5t-93.5 226.5t93.5 226.5t226.5 93.5t226.5 -93.5t93.5 -226.5t-93.5 -226.5t-226.5 -93.5zM320 128q80 0 136 56t56 136t-56 136t-136 56t-136 -56t-56 -136t56 -136t136 -56zM474 706l-295 34l7 59l295 -34z" />
    <glyph glyph-name="ograve" unicode="&#xf2;" 
d="M320 0q-133 0 -226.5 93.5t-93.5 226.5t93.5 226.5t226.5 93.5t226.5 -93.5t93.5 -226.5t-93.5 -226.5t-226.5 -93.5zM320 128q80 0 136 56t56 136t-56 136t-136 56t-136 -56t-56 -136t56 -136t136 -56zM474 706l-295 34l7 59l295 -34z" />
    <glyph glyph-name="uni1ECE" unicode="&#x1ece;" 
d="M320 0q-133 0 -226.5 93.5t-93.5 226.5t93.5 226.5t226.5 93.5t226.5 -93.5t93.5 -226.5t-93.5 -226.5t-226.5 -93.5zM320 128q80 0 136 56t56 136t-56 136t-136 56t-136 -56t-56 -136t56 -136t136 -56zM367 806h-171v45h171q28 0 47.5 -19.5t19.5 -47.5t-19.5 -47.5
t-47.5 -19.5h-22v-11h-44v56h66q10 0 16.5 6t6.5 16q0 9 -6.5 15.5t-16.5 6.5z" />
    <glyph glyph-name="uni1ECF" unicode="&#x1ecf;" 
d="M320 0q-133 0 -226.5 93.5t-93.5 226.5t93.5 226.5t226.5 93.5t226.5 -93.5t93.5 -226.5t-93.5 -226.5t-226.5 -93.5zM320 128q80 0 136 56t56 136t-56 136t-136 56t-136 -56t-56 -136t56 -136t136 -56zM367 806h-171v45h171q28 0 47.5 -19.5t19.5 -47.5t-19.5 -47.5
t-47.5 -19.5h-22v-11h-44v56h66q10 0 16.5 6t6.5 16q0 9 -6.5 15.5t-16.5 6.5z" />
    <glyph glyph-name="Otilde" unicode="&#xd5;" 
d="M320 0q-133 0 -226.5 93.5t-93.5 226.5t93.5 226.5t226.5 93.5t226.5 -93.5t93.5 -226.5t-93.5 -226.5t-226.5 -93.5zM320 128q80 0 136 56t56 136t-56 136t-136 56t-136 -56t-56 -136t56 -136t136 -56zM307 772q0 -9 6.5 -15.5t15.5 -6.5q10 0 16.5 6.5t6.5 15.5v216h44
v-216q0 -27 -19.5 -46.5t-47.5 -19.5q-27 0 -46.5 19.5t-19.5 46.5v67q0 9 -6.5 15.5t-15.5 6.5q-10 0 -16.5 -6.5t-6.5 -15.5v-67h-43l-1 45v22q0 28 19.5 47.5t47.5 19.5q27 0 46.5 -19.5t19.5 -47.5v-67z" />
    <glyph glyph-name="otilde" unicode="&#xf5;" 
d="M320 0q-133 0 -226.5 93.5t-93.5 226.5t93.5 226.5t226.5 93.5t226.5 -93.5t93.5 -226.5t-93.5 -226.5t-226.5 -93.5zM320 128q80 0 136 56t56 136t-56 136t-136 56t-136 -56t-56 -136t56 -136t136 -56zM307 772q0 -9 6.5 -15.5t15.5 -6.5q10 0 16.5 6.5t6.5 15.5v216h44
v-216q0 -27 -19.5 -46.5t-47.5 -19.5q-27 0 -46.5 19.5t-19.5 46.5v67q0 9 -6.5 15.5t-15.5 6.5q-10 0 -16.5 -6.5t-6.5 -15.5v-67h-43l-1 45v22q0 28 19.5 47.5t47.5 19.5q27 0 46.5 -19.5t19.5 -47.5v-67z" />
    <glyph glyph-name="uni1ECC" unicode="&#x1ecc;" 
d="M320 0q-133 0 -226.5 93.5t-93.5 226.5t93.5 226.5t226.5 93.5t226.5 -93.5t93.5 -226.5t-93.5 -226.5t-226.5 -93.5zM320 128q80 0 136 56t56 136t-56 136t-136 56t-136 -56t-56 -136t56 -136t136 -56zM361 -93h-82v-82h82v82zM404 -50v-168h-168v168h168z" />
    <glyph glyph-name="uni1ECD" unicode="&#x1ecd;" 
d="M320 0q-133 0 -226.5 93.5t-93.5 226.5t93.5 226.5t226.5 93.5t226.5 -93.5t93.5 -226.5t-93.5 -226.5t-226.5 -93.5zM320 128q80 0 136 56t56 136t-56 136t-136 56t-136 -56t-56 -136t56 -136t136 -56zM361 -93h-82v-82h82v82zM404 -50v-168h-168v168h168z" />
    <glyph glyph-name="Uacute" unicode="&#xda;" 
d="M0 320v320h128v-320q0 -80 56 -136t136 -56t136 56t56 136v320h128v-320q0 -133 -93.5 -226.5t-226.5 -93.5t-226.5 93.5t-93.5 226.5zM186 706l-7 59l295 34l7 -59z" />
    <glyph glyph-name="uacute" unicode="&#xfa;" 
d="M0 320v320h128v-320q0 -80 56 -136t136 -56t136 56t56 136v640h128v-640q0 -133 -93.5 -226.5t-226.5 -93.5t-226.5 93.5t-93.5 226.5zM186 706l-7 59l295 34l7 -59z" />
    <glyph glyph-name="Ugrave" unicode="&#xd9;" 
d="M0 320v320h128v-320q0 -80 56 -136t136 -56t136 56t56 136v320h128v-320q0 -133 -93.5 -226.5t-226.5 -93.5t-226.5 93.5t-93.5 226.5zM474 706l-295 34l7 59l295 -34z" />
    <glyph glyph-name="ugrave" unicode="&#xf9;" 
d="M0 320v320h128v-320q0 -80 56 -136t136 -56t136 56t56 136v640h128v-640q0 -133 -93.5 -226.5t-226.5 -93.5t-226.5 93.5t-93.5 226.5zM474 706l-295 34l7 59l295 -34z" />
    <glyph glyph-name="uni1EE6" unicode="&#x1ee6;" 
d="M0 320v320h128v-320q0 -80 56 -136t136 -56t136 56t56 136v320h128v-320q0 -133 -93.5 -226.5t-226.5 -93.5t-226.5 93.5t-93.5 226.5zM367 806h-171v45h171q28 0 47.5 -19.5t19.5 -47.5t-19.5 -47.5t-47.5 -19.5h-22v-11h-44v56h66q10 0 16.5 6t6.5 16q0 9 -6.5 15.5
t-16.5 6.5z" />
    <glyph glyph-name="uni1EE7" unicode="&#x1ee7;" 
d="M0 320v320h128v-320q0 -80 56 -136t136 -56t136 56t56 136v640h128v-640q0 -133 -93.5 -226.5t-226.5 -93.5t-226.5 93.5t-93.5 226.5zM367 806h-171v45h171q28 0 47.5 -19.5t19.5 -47.5t-19.5 -47.5t-47.5 -19.5h-22v-11h-44v56h66q10 0 16.5 6t6.5 16q0 9 -6.5 15.5
t-16.5 6.5z" />
    <glyph glyph-name="Utilde" unicode="&#x168;" 
d="M0 320v320h128v-320q0 -80 56 -136t136 -56t136 56t56 136v320h128v-320q0 -133 -93.5 -226.5t-226.5 -93.5t-226.5 93.5t-93.5 226.5zM307 772q0 -9 6.5 -15.5t15.5 -6.5q10 0 16.5 6.5t6.5 15.5v216h44v-216q0 -27 -19.5 -46.5t-47.5 -19.5q-27 0 -46.5 19.5
t-19.5 46.5v67q0 9 -6.5 15.5t-15.5 6.5q-10 0 -16.5 -6.5t-6.5 -15.5v-67h-43l-1 45v22q0 28 19.5 47.5t47.5 19.5q27 0 46.5 -19.5t19.5 -47.5v-67z" />
    <glyph glyph-name="utilde" unicode="&#x169;" 
d="M0 320v320h128v-320q0 -80 56 -136t136 -56t136 56t56 136v640h128v-640q0 -133 -93.5 -226.5t-226.5 -93.5t-226.5 93.5t-93.5 226.5zM317 840q0 9 -6.5 15.5t-15.5 6.5q-10 0 -16.5 -6.5t-6.5 -15.5v-216h-44v216q0 27 19.5 46.5t47.5 19.5q27 0 46.5 -19.5t19.5 -46.5
v-67q0 -9 6.5 -15.5t15.5 -6.5q10 0 16.5 6.5t6.5 15.5v67h43l1 -45v-22q0 -28 -19.5 -47.5t-47.5 -19.5q-27 0 -46.5 19.5t-19.5 47.5v67z" />
    <glyph glyph-name="uni1EE4" unicode="&#x1ee4;" 
d="M0 320v320h128v-320q0 -80 56 -136t136 -56t136 56t56 136v320h128v-320q0 -133 -93.5 -226.5t-226.5 -93.5t-226.5 93.5t-93.5 226.5zM361 -93h-82v-82h82v82zM404 -50v-168h-168v168h168z" />
    <glyph glyph-name="uni1EE5" unicode="&#x1ee5;" 
d="M0 320v320h128v-320q0 -80 56 -136t136 -56t136 56t56 136v640h128v-640q0 -133 -93.5 -226.5t-226.5 -93.5t-226.5 93.5t-93.5 226.5zM361 -93h-82v-82h82v82zM404 -50v-168h-168v168h168z" />
    <glyph glyph-name="Dcroat" unicode="&#x110;" horiz-adv-x="925" 
d="M240 269v-141h320q80 0 136 56t56 136t-56 136t-136 56h-320v-153h400v-90h-400zM112 359v281h448q133 0 226.5 -93.5t93.5 -226.5t-93.5 -226.5t-226.5 -93.5h-448v269h-112v90h112z" />
    <glyph glyph-name="dcroat" unicode="&#x111;" horiz-adv-x="925" 
d="M240 269v-141h320q80 0 136 56t56 136t-56 136t-136 56h-320v-153h400v-90h-400zM112 359v281h448q133 0 226.5 -93.5t93.5 -226.5t-93.5 -226.5t-226.5 -93.5h-448v269h-112v90h112z" />
    <glyph glyph-name="Acircumflex" unicode="&#xc2;" 
d="M0 0l320 672l320 -672h-144l-176 368l-176 -368h-144zM442 706l-122 186l-122 -186h244zM367 744h-95l48 73z" />
    <glyph glyph-name="acircumflex" unicode="&#xe2;" 
d="M0 0l320 672l320 -672h-144l-176 368l-176 -368h-144zM442 706l-122 186l-122 -186h244zM367 744h-95l48 73z" />
    <glyph glyph-name="uni1EA4" unicode="&#x1ea4;" 
d="M0 0l320 672l320 -672h-144l-176 368l-176 -368h-144zM386 831l-6 48l241 28l5 -48zM442 706l-122 186l-122 -186h244zM367 744h-95l48 73z" />
    <glyph glyph-name="uni1EA5" unicode="&#x1ea5;" 
d="M0 0l320 672l320 -672h-144l-176 368l-176 -368h-144zM386 831l-6 48l241 28l5 -48zM442 706l-122 186l-122 -186h244zM367 744h-95l48 73z" />
    <glyph glyph-name="uni1EA6" unicode="&#x1ea6;" 
d="M0 0l320 672l320 -672h-144l-176 368l-176 -368h-144zM254 831l-241 28l6 48l240 -28zM442 706l-122 186l-122 -186h244zM367 744h-95l48 73z" />
    <glyph glyph-name="uni1EA7" unicode="&#x1ea7;" 
d="M0 0l320 672l320 -672h-144l-176 368l-176 -368h-144zM254 831l-241 28l6 48l240 -28zM442 706l-122 186l-122 -186h244zM367 744h-95l48 73z" />
    <glyph glyph-name="uni1EA8" unicode="&#x1ea8;" 
d="M0 0l320 672l320 -672h-144l-176 368l-176 -368h-144zM453 931h-171v45h171q28 0 47.5 -19.5t19.5 -47.5t-19.5 -47.5t-47.5 -19.5h-22v-11h-44v56h66q10 0 16.5 6t6.5 16q0 9 -6.5 15.5t-16.5 6.5zM442 706l-122 186l-122 -186h244zM367 744h-95l48 73z" />
    <glyph glyph-name="uni1EA9" unicode="&#x1ea9;" 
d="M0 0l320 672l320 -672h-144l-176 368l-176 -368h-144zM453 931h-171v45h171q28 0 47.5 -19.5t19.5 -47.5t-19.5 -47.5t-47.5 -19.5h-22v-11h-44v56h66q10 0 16.5 6t6.5 16q0 9 -6.5 15.5t-16.5 6.5zM442 706l-122 186l-122 -186h244zM367 744h-95l48 73z" />
    <glyph glyph-name="uni1EAA" unicode="&#x1eaa;" 
d="M0 0l320 672l320 -672h-144l-176 368l-176 -368h-144zM285 1047q0 9 -6.5 15.5t-15.5 6.5q-10 0 -16.5 -6.5t-6.5 -15.5v-216h-44v216q0 27 19.5 46.5t47.5 19.5q27 0 46.5 -19.5t19.5 -46.5v-67q0 -9 6.5 -15.5t15.5 -6.5q10 0 16.5 6.5t6.5 15.5v67h43l1 -45v-22
q0 -28 -19.5 -47.5t-47.5 -19.5q-27 0 -46.5 19.5t-19.5 47.5v67zM442 706l-122 186l-122 -186h244zM367 744h-95l48 73z" />
    <glyph glyph-name="uni1EAB" unicode="&#x1eab;" 
d="M0 0l320 672l320 -672h-144l-176 368l-176 -368h-144zM285 1047q0 9 -6.5 15.5t-15.5 6.5q-10 0 -16.5 -6.5t-6.5 -15.5v-216h-44v216q0 27 19.5 46.5t47.5 19.5q27 0 46.5 -19.5t19.5 -46.5v-67q0 -9 6.5 -15.5t15.5 -6.5q10 0 16.5 6.5t6.5 15.5v67h43l1 -45v-22
q0 -28 -19.5 -47.5t-47.5 -19.5q-27 0 -46.5 19.5t-19.5 47.5v67zM442 706l-122 186l-122 -186h244zM367 744h-95l48 73z" />
    <glyph glyph-name="uni1EAC" unicode="&#x1eac;" 
d="M0 0l320 672l320 -672h-144l-176 368l-176 -368h-144zM361 -93h-82v-82h82v82zM404 -50v-168h-168v168h168zM442 706l-122 186l-122 -186h244zM367 744h-95l48 73z" />
    <glyph glyph-name="uni1EAD" unicode="&#x1ead;" 
d="M0 0l320 672l320 -672h-144l-176 368l-176 -368h-144zM361 -93h-82v-82h82v82zM404 -50v-168h-168v168h168zM442 706l-122 186l-122 -186h244zM367 744h-95l48 73z" />
    <glyph glyph-name="_175" horiz-adv-x="45" 
 />
    <glyph glyph-name="Abreve" unicode="&#x102;" 
d="M0 0l320 672l320 -672h-144l-176 368l-176 -368h-144zM287 800l33 -36l33 36h51l-84 -100l-85 100h52z" />
    <glyph glyph-name="abreve" unicode="&#x103;" 
d="M0 0l320 672l320 -672h-144l-176 368l-176 -368h-144zM287 800l33 -36l33 36h51l-84 -100l-85 100h52z" />
    <glyph glyph-name="uni1EAE" unicode="&#x1eae;" 
d="M0 0l320 672l320 -672h-144l-176 368l-176 -368h-144zM287 800l33 -36l33 36h51l-84 -100l-85 100h52zM204 831l-6 48l241 28l5 -48z" />
    <glyph glyph-name="uni1EAF" unicode="&#x1eaf;" 
d="M0 0l320 672l320 -672h-144l-176 368l-176 -368h-144zM287 800l33 -36l33 36h51l-84 -100l-85 100h52zM204 831l-6 48l241 28l5 -48z" />
    <glyph glyph-name="uni1EB0" unicode="&#x1eb0;" 
d="M0 0l320 672l320 -672h-144l-176 368l-176 -368h-144zM287 800l33 -36l33 36h51l-84 -100l-85 100h52zM439 831l-241 28l6 48l240 -28z" />
    <glyph glyph-name="uni1EB1" unicode="&#x1eb1;" 
d="M0 0l320 672l320 -672h-144l-176 368l-176 -368h-144zM287 800l33 -36l33 36h51l-84 -100l-85 100h52zM439 831l-241 28l6 48l240 -28z" />
    <glyph glyph-name="uni1EB2" unicode="&#x1eb2;" 
d="M0 0l320 672l320 -672h-144l-176 368l-176 -368h-144zM365 921h-171v45h171q28 0 47.5 -19.5t19.5 -47.5t-19.5 -47.5t-47.5 -19.5h-22v-11h-44v56h66q10 0 16.5 6t6.5 16q0 9 -6.5 15.5t-16.5 6.5zM287 800l33 -36l33 36h51l-84 -100l-85 100h52z" />
    <glyph glyph-name="uni1EB3" unicode="&#x1eb3;" 
d="M0 0l320 672l320 -672h-144l-176 368l-176 -368h-144zM365 921h-171v45h171q28 0 47.5 -19.5t19.5 -47.5t-19.5 -47.5t-47.5 -19.5h-22v-11h-44v56h66q10 0 16.5 6t6.5 16q0 9 -6.5 15.5t-16.5 6.5zM287 800l33 -36l33 36h51l-84 -100l-85 100h52z" />
    <glyph glyph-name="uni1EB4" unicode="&#x1eb4;" 
d="M0 0l320 672l320 -672h-144l-176 368l-176 -368h-144zM338 884q0 -9 6.5 -15.5t15.5 -6.5q10 0 16.5 6.5t6.5 15.5v216h44v-216q0 -27 -19.5 -46.5t-47.5 -19.5q-27 0 -46.5 19.5t-19.5 46.5v67q0 9 -6.5 15.5t-15.5 6.5q-10 0 -16.5 -6.5t-6.5 -15.5v-67h-43l-1 45v22
q0 28 19.5 47.5t47.5 19.5q27 0 46.5 -19.5t19.5 -47.5v-67zM287 800l33 -36l33 36h51l-84 -100l-85 100h52z" />
    <glyph glyph-name="uni1EB5" unicode="&#x1eb5;" 
d="M0 0l320 672l320 -672h-144l-176 368l-176 -368h-144zM338 884q0 -9 6.5 -15.5t15.5 -6.5q10 0 16.5 6.5t6.5 15.5v216h44v-216q0 -27 -19.5 -46.5t-47.5 -19.5q-27 0 -46.5 19.5t-19.5 46.5v67q0 9 -6.5 15.5t-15.5 6.5q-10 0 -16.5 -6.5t-6.5 -15.5v-67h-43l-1 45v22
q0 28 19.5 47.5t47.5 19.5q27 0 46.5 -19.5t19.5 -47.5v-67zM287 800l33 -36l33 36h51l-84 -100l-85 100h52z" />
    <glyph glyph-name="uni1EB6" unicode="&#x1eb6;" 
d="M0 0l320 672l320 -672h-144l-176 368l-176 -368h-144zM361 -93h-82v-82h82v82zM404 -50v-168h-168v168h168zM287 800l33 -36l33 36h51l-84 -100l-85 100h52z" />
    <glyph glyph-name="uni1EB7" unicode="&#x1eb7;" 
d="M0 0l320 672l320 -672h-144l-176 368l-176 -368h-144zM361 -93h-82v-82h82v82zM404 -50v-168h-168v168h168zM287 800l33 -36l33 36h51l-84 -100l-85 100h52z" />
    <glyph glyph-name="Ecircumflex" unicode="&#xca;" 
d="M640 256h-352v128h352v-128zM640 640v-128h-512v-384h512v-128h-640v640h640zM442 706l-122 186l-122 -186h244zM367 744h-95l48 73z" />
    <glyph glyph-name="ecircumflex" unicode="&#xea;" horiz-adv-x="1069" 
d="M1024 256h-736v128h736v-128zM640 640v-128h-512v-384h512v-128h-640v640h640zM442 706l-122 186l-122 -186h244zM367 744h-95l48 73z" />
    <glyph glyph-name="uni1EBE" unicode="&#x1ebe;" 
d="M640 256h-352v128h352v-128zM640 640v-128h-512v-384h512v-128h-640v640h640zM386 831l-6 48l241 28l5 -48zM442 706l-122 186l-122 -186h244zM367 744h-95l48 73z" />
    <glyph glyph-name="uni1EBF" unicode="&#x1ebf;" horiz-adv-x="1069" 
d="M1024 256h-736v128h736v-128zM640 640v-128h-512v-384h512v-128h-640v640h640zM386 831l-6 48l241 28l5 -48zM442 706l-122 186l-122 -186h244zM367 744h-95l48 73z" />
    <glyph glyph-name="uni1EC0" unicode="&#x1ec0;" 
d="M640 256h-352v128h352v-128zM640 640v-128h-512v-384h512v-128h-640v640h640zM254 831l-241 28l6 48l240 -28zM442 706l-122 186l-122 -186h244zM367 744h-95l48 73z" />
    <glyph glyph-name="uni1EC1" unicode="&#x1ec1;" horiz-adv-x="1069" 
d="M1024 256h-736v128h736v-128zM640 640v-128h-512v-384h512v-128h-640v640h640zM254 831l-241 28l6 48l240 -28zM442 706l-122 186l-122 -186h244zM367 744h-95l48 73z" />
    <glyph glyph-name="uni1EC2" unicode="&#x1ec2;" 
d="M640 256h-352v128h352v-128zM640 640v-128h-512v-384h512v-128h-640v640h640zM453 931h-171v45h171q28 0 47.5 -19.5t19.5 -47.5t-19.5 -47.5t-47.5 -19.5h-22v-11h-44v56h66q10 0 16.5 6t6.5 16q0 9 -6.5 15.5t-16.5 6.5zM442 706l-122 186l-122 -186h244zM367 744h-95
l48 73z" />
    <glyph glyph-name="uni1EC3" unicode="&#x1ec3;" horiz-adv-x="1069" 
d="M1024 256h-736v128h736v-128zM640 640v-128h-512v-384h512v-128h-640v640h640zM453 931h-171v45h171q28 0 47.5 -19.5t19.5 -47.5t-19.5 -47.5t-47.5 -19.5h-22v-11h-44v56h66q10 0 16.5 6t6.5 16q0 9 -6.5 15.5t-16.5 6.5zM442 706l-122 186l-122 -186h244zM367 744h-95
l48 73z" />
    <glyph glyph-name="uni1EC4" unicode="&#x1ec4;" 
d="M640 256h-352v128h352v-128zM640 640v-128h-512v-384h512v-128h-640v640h640zM285 1047q0 9 -6.5 15.5t-15.5 6.5q-10 0 -16.5 -6.5t-6.5 -15.5v-216h-44v216q0 27 19.5 46.5t47.5 19.5q27 0 46.5 -19.5t19.5 -46.5v-67q0 -9 6.5 -15.5t15.5 -6.5q10 0 16.5 6.5t6.5 15.5
v67h43l1 -45v-22q0 -28 -19.5 -47.5t-47.5 -19.5q-27 0 -46.5 19.5t-19.5 47.5v67zM442 706l-122 186l-122 -186h244zM367 744h-95l48 73z" />
    <glyph glyph-name="uni1EC5" unicode="&#x1ec5;" horiz-adv-x="1069" 
d="M1024 256h-736v128h736v-128zM640 640v-128h-512v-384h512v-128h-640v640h640zM285 1047q0 9 -6.5 15.5t-15.5 6.5q-10 0 -16.5 -6.5t-6.5 -15.5v-216h-44v216q0 27 19.5 46.5t47.5 19.5q27 0 46.5 -19.5t19.5 -46.5v-67q0 -9 6.5 -15.5t15.5 -6.5q10 0 16.5 6.5
t6.5 15.5v67h43l1 -45v-22q0 -28 -19.5 -47.5t-47.5 -19.5q-27 0 -46.5 19.5t-19.5 47.5v67zM442 706l-122 186l-122 -186h244zM367 744h-95l48 73z" />
    <glyph glyph-name="uni1EC6" unicode="&#x1ec6;" 
d="M640 256h-352v128h352v-128zM640 640v-128h-512v-384h512v-128h-640v640h640zM319 -218q-35 0 -59.5 25t-24.5 59q0 35 24.5 59.5t59.5 24.5q34 0 59 -24.5t25 -59.5q0 -34 -25 -59t-59 -25zM319 -173q17 0 29.5 12t12.5 29t-12.5 29.5t-29.5 12.5t-29 -12.5t-12 -29.5
t12 -29t29 -12zM442 706l-122 186l-122 -186h244zM367 744h-95l48 73z" />
    <glyph glyph-name="uni1EC7" unicode="&#x1ec7;" horiz-adv-x="1069" 
d="M1024 256h-736v128h736v-128zM640 640v-128h-512v-384h512v-128h-640v640h640zM319 -218q-35 0 -59.5 25t-24.5 59q0 35 24.5 59.5t59.5 24.5q34 0 59 -24.5t25 -59.5q0 -34 -25 -59t-59 -25zM319 -173q17 0 29.5 12t12.5 29t-12.5 29.5t-29.5 12.5t-29 -12.5t-12 -29.5
t12 -29t29 -12zM442 706l-122 186l-122 -186h244zM367 744h-95l48 73z" />
    <glyph glyph-name="_200" horiz-adv-x="45" 
 />
    <glyph glyph-name="Ohorn" unicode="&#x1a0;" 
d="M320 0q-133 0 -226.5 93.5t-93.5 226.5t93.5 226.5t226.5 93.5t226.5 -93.5t93.5 -226.5t-93.5 -226.5t-226.5 -93.5zM320 128q80 0 136 56t56 136t-56 136t-136 56t-136 -56t-56 -136t56 -136t136 -56zM723 579l-122 133l-44 -173zM658 600l-59 -15l16 62z" />
    <glyph glyph-name="ohorn" unicode="&#x1a1;" 
d="M320 0q-133 0 -226.5 93.5t-93.5 226.5t93.5 226.5t226.5 93.5t226.5 -93.5t93.5 -226.5t-93.5 -226.5t-226.5 -93.5zM320 128q80 0 136 56t56 136t-56 136t-136 56t-136 -56t-56 -136t56 -136t136 -56zM723 579l-122 133l-44 -173zM658 600l-59 -15l16 62z" />
    <glyph glyph-name="Uhorn" unicode="&#x1af;" horiz-adv-x="700" 
d="M0 320v320h128v-320q0 -80 56 -136t136 -56t136 56t56 136v320h128v-320q0 -133 -93.5 -226.5t-226.5 -93.5t-226.5 93.5t-93.5 226.5zM680 632q-30 0 -52 22t-22 53q0 30 22 52t52 22q31 0 53 -22t22 -52q0 -31 -22 -53t-53 -22zM681 671q15 0 26 11t11 26t-11 26
t-26 11t-26 -11t-11 -26t11 -26t26 -11z" />
    <glyph glyph-name="uhorn" unicode="&#x1b0;" horiz-adv-x="700" 
d="M640 320q0 -133 -93.5 -226.5t-226.5 -93.5t-226.5 93.5t-93.5 226.5v640h128v-640q0 -80 56 -136t136 -56t136 56t56 136v320h128v-320zM680 632q-30 0 -52 22t-22 53q0 30 22 52t52 22q31 0 53 -22t22 -52q0 -31 -22 -53t-53 -22zM681 671q15 0 26 11t11 26t-11 26
t-26 11t-26 -11t-11 -26t11 -26t26 -11z" />
    <glyph glyph-name="_204" horiz-adv-x="45" 
 />
    <glyph glyph-name="Ocircumflex" unicode="&#xd4;" 
d="M320 0q-133 0 -226.5 93.5t-93.5 226.5t93.5 226.5t226.5 93.5t226.5 -93.5t93.5 -226.5t-93.5 -226.5t-226.5 -93.5zM320 128q80 0 136 56t56 136t-56 136t-136 56t-136 -56t-56 -136t56 -136t136 -56zM442 706l-122 186l-122 -186h244zM367 744h-95l48 73z" />
    <glyph glyph-name="ocircumflex" unicode="&#xf4;" 
d="M320 0q-133 0 -226.5 93.5t-93.5 226.5t93.5 226.5t226.5 93.5t226.5 -93.5t93.5 -226.5t-93.5 -226.5t-226.5 -93.5zM320 128q80 0 136 56t56 136t-56 136t-136 56t-136 -56t-56 -136t56 -136t136 -56zM442 706l-122 186l-122 -186h244zM367 744h-95l48 73z" />
    <glyph glyph-name="uni1ED0" unicode="&#x1ed0;" 
d="M320 0q-133 0 -226.5 93.5t-93.5 226.5t93.5 226.5t226.5 93.5t226.5 -93.5t93.5 -226.5t-93.5 -226.5t-226.5 -93.5zM320 128q80 0 136 56t56 136t-56 136t-136 56t-136 -56t-56 -136t56 -136t136 -56zM386 831l-6 48l241 28l5 -48zM442 706l-122 186l-122 -186h244z
M367 744h-95l48 73z" />
    <glyph glyph-name="uni1ED1" unicode="&#x1ed1;" 
d="M320 0q-133 0 -226.5 93.5t-93.5 226.5t93.5 226.5t226.5 93.5t226.5 -93.5t93.5 -226.5t-93.5 -226.5t-226.5 -93.5zM320 128q80 0 136 56t56 136t-56 136t-136 56t-136 -56t-56 -136t56 -136t136 -56zM386 831l-6 48l241 28l5 -48zM442 706l-122 186l-122 -186h244z
M367 744h-95l48 73z" />
    <glyph glyph-name="uni1ED2" unicode="&#x1ed2;" 
d="M320 0q-133 0 -226.5 93.5t-93.5 226.5t93.5 226.5t226.5 93.5t226.5 -93.5t93.5 -226.5t-93.5 -226.5t-226.5 -93.5zM320 128q80 0 136 56t56 136t-56 136t-136 56t-136 -56t-56 -136t56 -136t136 -56zM254 831l-241 28l6 48l240 -28zM442 706l-122 186l-122 -186h244z
M367 744h-95l48 73z" />
    <glyph glyph-name="uni1ED3" unicode="&#x1ed3;" 
d="M320 0q-133 0 -226.5 93.5t-93.5 226.5t93.5 226.5t226.5 93.5t226.5 -93.5t93.5 -226.5t-93.5 -226.5t-226.5 -93.5zM320 128q80 0 136 56t56 136t-56 136t-136 56t-136 -56t-56 -136t56 -136t136 -56zM254 831l-241 28l6 48l240 -28zM442 706l-122 186l-122 -186h244z
M367 744h-95l48 73z" />
    <glyph glyph-name="uni1ED4" unicode="&#x1ed4;" 
d="M320 0q-133 0 -226.5 93.5t-93.5 226.5t93.5 226.5t226.5 93.5t226.5 -93.5t93.5 -226.5t-93.5 -226.5t-226.5 -93.5zM320 128q80 0 136 56t56 136t-56 136t-136 56t-136 -56t-56 -136t56 -136t136 -56zM453 931h-171v45h171q28 0 47.5 -19.5t19.5 -47.5t-19.5 -47.5
t-47.5 -19.5h-22v-11h-44v56h66q10 0 16.5 6t6.5 16q0 9 -6.5 15.5t-16.5 6.5zM442 706l-122 186l-122 -186h244zM367 744h-95l48 73z" />
    <glyph glyph-name="uni1ED5" unicode="&#x1ed5;" 
d="M320 0q-133 0 -226.5 93.5t-93.5 226.5t93.5 226.5t226.5 93.5t226.5 -93.5t93.5 -226.5t-93.5 -226.5t-226.5 -93.5zM320 128q80 0 136 56t56 136t-56 136t-136 56t-136 -56t-56 -136t56 -136t136 -56zM453 931h-171v45h171q28 0 47.5 -19.5t19.5 -47.5t-19.5 -47.5
t-47.5 -19.5h-22v-11h-44v56h66q10 0 16.5 6t6.5 16q0 9 -6.5 15.5t-16.5 6.5zM442 706l-122 186l-122 -186h244zM367 744h-95l48 73z" />
    <glyph glyph-name="uni1ED6" unicode="&#x1ed6;" 
d="M320 0q-133 0 -226.5 93.5t-93.5 226.5t93.5 226.5t226.5 93.5t226.5 -93.5t93.5 -226.5t-93.5 -226.5t-226.5 -93.5zM320 128q80 0 136 56t56 136t-56 136t-136 56t-136 -56t-56 -136t56 -136t136 -56zM285 1047q0 9 -6.5 15.5t-15.5 6.5q-10 0 -16.5 -6.5t-6.5 -15.5
v-216h-44v216q0 27 19.5 46.5t47.5 19.5q27 0 46.5 -19.5t19.5 -46.5v-67q0 -9 6.5 -15.5t15.5 -6.5q10 0 16.5 6.5t6.5 15.5v67h43l1 -45v-22q0 -28 -19.5 -47.5t-47.5 -19.5q-27 0 -46.5 19.5t-19.5 47.5v67zM442 706l-122 186l-122 -186h244zM367 744h-95l48 73z" />
    <glyph glyph-name="uni1ED7" unicode="&#x1ed7;" 
d="M320 0q-133 0 -226.5 93.5t-93.5 226.5t93.5 226.5t226.5 93.5t226.5 -93.5t93.5 -226.5t-93.5 -226.5t-226.5 -93.5zM320 128q80 0 136 56t56 136t-56 136t-136 56t-136 -56t-56 -136t56 -136t136 -56zM285 1047q0 9 -6.5 15.5t-15.5 6.5q-10 0 -16.5 -6.5t-6.5 -15.5
v-216h-44v216q0 27 19.5 46.5t47.5 19.5q27 0 46.5 -19.5t19.5 -46.5v-67q0 -9 6.5 -15.5t15.5 -6.5q10 0 16.5 6.5t6.5 15.5v67h43l1 -45v-22q0 -28 -19.5 -47.5t-47.5 -19.5q-27 0 -46.5 19.5t-19.5 47.5v67zM442 706l-122 186l-122 -186h244zM367 744h-95l48 73z" />
    <glyph glyph-name="uni1ED8" unicode="&#x1ed8;" 
d="M320 0q-133 0 -226.5 93.5t-93.5 226.5t93.5 226.5t226.5 93.5t226.5 -93.5t93.5 -226.5t-93.5 -226.5t-226.5 -93.5zM320 128q80 0 136 56t56 136t-56 136t-136 56t-136 -56t-56 -136t56 -136t136 -56zM361 -93h-82v-82h82v82zM404 -50v-168h-168v168h168zM442 706
l-122 186l-122 -186h244zM367 744h-95l48 73z" />
    <glyph glyph-name="uni1ED9" unicode="&#x1ed9;" 
d="M320 0q-133 0 -226.5 93.5t-93.5 226.5t93.5 226.5t226.5 93.5t226.5 -93.5t93.5 -226.5t-93.5 -226.5t-226.5 -93.5zM320 128q80 0 136 56t56 136t-56 136t-136 56t-136 -56t-56 -136t56 -136t136 -56zM361 -93h-82v-82h82v82zM404 -50v-168h-168v168h168zM442 706
l-122 186l-122 -186h244zM367 744h-95l48 73z" />
    <glyph glyph-name="_218" horiz-adv-x="45" 
 />
    <glyph glyph-name="uni1EDA" unicode="&#x1eda;" 
d="M320 0q-133 0 -226.5 93.5t-93.5 226.5t93.5 226.5t226.5 93.5t226.5 -93.5t93.5 -226.5t-93.5 -226.5t-226.5 -93.5zM320 128q80 0 136 56t56 136t-56 136t-136 56t-136 -56t-56 -136t56 -136t136 -56zM723 579l-122 133l-44 -173zM658 600l-59 -15l16 62zM186 706
l-7 59l295 34l7 -59z" />
    <glyph glyph-name="uni1EDB" unicode="&#x1edb;" 
d="M320 0q-133 0 -226.5 93.5t-93.5 226.5t93.5 226.5t226.5 93.5t226.5 -93.5t93.5 -226.5t-93.5 -226.5t-226.5 -93.5zM320 128q80 0 136 56t56 136t-56 136t-136 56t-136 -56t-56 -136t56 -136t136 -56zM723 579l-122 133l-44 -173zM658 600l-59 -15l16 62zM186 706
l-7 59l295 34l7 -59z" />
    <glyph glyph-name="uni1EDC" unicode="&#x1edc;" 
d="M320 0q-133 0 -226.5 93.5t-93.5 226.5t93.5 226.5t226.5 93.5t226.5 -93.5t93.5 -226.5t-93.5 -226.5t-226.5 -93.5zM320 128q80 0 136 56t56 136t-56 136t-136 56t-136 -56t-56 -136t56 -136t136 -56zM723 579l-122 133l-44 -173zM658 600l-59 -15l16 62zM474 706
l-295 34l7 59l295 -34z" />
    <glyph glyph-name="uni1EDD" unicode="&#x1edd;" 
d="M320 0q-133 0 -226.5 93.5t-93.5 226.5t93.5 226.5t226.5 93.5t226.5 -93.5t93.5 -226.5t-93.5 -226.5t-226.5 -93.5zM320 128q80 0 136 56t56 136t-56 136t-136 56t-136 -56t-56 -136t56 -136t136 -56zM723 579l-122 133l-44 -173zM658 600l-59 -15l16 62zM474 706
l-295 34l7 59l295 -34z" />
    <glyph glyph-name="uni1EDE" unicode="&#x1ede;" 
d="M320 0q-133 0 -226.5 93.5t-93.5 226.5t93.5 226.5t226.5 93.5t226.5 -93.5t93.5 -226.5t-93.5 -226.5t-226.5 -93.5zM320 128q80 0 136 56t56 136t-56 136t-136 56t-136 -56t-56 -136t56 -136t136 -56zM723 579l-122 133l-44 -173zM658 600l-59 -15l16 62zM367 806h-171
v45h171q28 0 47.5 -19.5t19.5 -47.5t-19.5 -47.5t-47.5 -19.5h-22v-11h-44v56h66q10 0 16.5 6t6.5 16q0 9 -6.5 15.5t-16.5 6.5z" />
    <glyph glyph-name="uni1EDF" unicode="&#x1edf;" 
d="M320 0q-133 0 -226.5 93.5t-93.5 226.5t93.5 226.5t226.5 93.5t226.5 -93.5t93.5 -226.5t-93.5 -226.5t-226.5 -93.5zM320 128q80 0 136 56t56 136t-56 136t-136 56t-136 -56t-56 -136t56 -136t136 -56zM723 579l-122 133l-44 -173zM658 600l-59 -15l16 62zM367 806h-171
v45h171q28 0 47.5 -19.5t19.5 -47.5t-19.5 -47.5t-47.5 -19.5h-22v-11h-44v56h66q10 0 16.5 6t6.5 16q0 9 -6.5 15.5t-16.5 6.5z" />
    <glyph glyph-name="uni1EE0" unicode="&#x1ee0;" 
d="M320 0q-133 0 -226.5 93.5t-93.5 226.5t93.5 226.5t226.5 93.5t226.5 -93.5t93.5 -226.5t-93.5 -226.5t-226.5 -93.5zM320 128q80 0 136 56t56 136t-56 136t-136 56t-136 -56t-56 -136t56 -136t136 -56zM723 579l-122 133l-44 -173zM658 600l-59 -15l16 62zM307 772
q0 -9 6.5 -15.5t15.5 -6.5q10 0 16.5 6.5t6.5 15.5v216h44v-216q0 -27 -19.5 -46.5t-47.5 -19.5q-27 0 -46.5 19.5t-19.5 46.5v67q0 9 -6.5 15.5t-15.5 6.5q-10 0 -16.5 -6.5t-6.5 -15.5v-67h-43l-1 45v22q0 28 19.5 47.5t47.5 19.5q27 0 46.5 -19.5t19.5 -47.5v-67z" />
    <glyph glyph-name="uni1EE1" unicode="&#x1ee1;" 
d="M320 0q-133 0 -226.5 93.5t-93.5 226.5t93.5 226.5t226.5 93.5t226.5 -93.5t93.5 -226.5t-93.5 -226.5t-226.5 -93.5zM320 128q80 0 136 56t56 136t-56 136t-136 56t-136 -56t-56 -136t56 -136t136 -56zM723 579l-122 133l-44 -173zM658 600l-59 -15l16 62zM307 772
q0 -9 6.5 -15.5t15.5 -6.5q10 0 16.5 6.5t6.5 15.5v216h44v-216q0 -27 -19.5 -46.5t-47.5 -19.5q-27 0 -46.5 19.5t-19.5 46.5v67q0 9 -6.5 15.5t-15.5 6.5q-10 0 -16.5 -6.5t-6.5 -15.5v-67h-43l-1 45v22q0 28 19.5 47.5t47.5 19.5q27 0 46.5 -19.5t19.5 -47.5v-67z" />
    <glyph glyph-name="uni1EE2" unicode="&#x1ee2;" 
d="M320 0q-133 0 -226.5 93.5t-93.5 226.5t93.5 226.5t226.5 93.5t226.5 -93.5t93.5 -226.5t-93.5 -226.5t-226.5 -93.5zM320 128q80 0 136 56t56 136t-56 136t-136 56t-136 -56t-56 -136t56 -136t136 -56zM723 579l-122 133l-44 -173zM658 600l-59 -15l16 62zM361 -93h-82
v-82h82v82zM404 -50v-168h-168v168h168z" />
    <glyph glyph-name="uni1EE3" unicode="&#x1ee3;" 
d="M320 0q-133 0 -226.5 93.5t-93.5 226.5t93.5 226.5t226.5 93.5t226.5 -93.5t93.5 -226.5t-93.5 -226.5t-226.5 -93.5zM320 128q80 0 136 56t56 136t-56 136t-136 56t-136 -56t-56 -136t56 -136t136 -56zM723 579l-122 133l-44 -173zM658 600l-59 -15l16 62zM361 -93h-82
v-82h82v82zM404 -50v-168h-168v168h168z" />
    <glyph glyph-name="uni1EE8" unicode="&#x1ee8;" horiz-adv-x="700" 
d="M0 320v320h128v-320q0 -80 56 -136t136 -56t136 56t56 136v320h128v-320q0 -133 -93.5 -226.5t-226.5 -93.5t-226.5 93.5t-93.5 226.5zM186 706l-7 59l295 34l7 -59zM680 632q-30 0 -52 22t-22 53q0 30 22 52t52 22q31 0 53 -22t22 -52q0 -31 -22 -53t-53 -22zM681 671
q15 0 26 11t11 26t-11 26t-26 11t-26 -11t-11 -26t11 -26t26 -11z" />
    <glyph glyph-name="uni1EE9" unicode="&#x1ee9;" horiz-adv-x="700" 
d="M640 320q0 -133 -93.5 -226.5t-226.5 -93.5t-226.5 93.5t-93.5 226.5v640h128v-640q0 -80 56 -136t136 -56t136 56t56 136v320h128v-320zM186 706l-7 59l295 34l7 -59zM680 632q-30 0 -52 22t-22 53q0 30 22 52t52 22q31 0 53 -22t22 -52q0 -31 -22 -53t-53 -22zM681 671
q15 0 26 11t11 26t-11 26t-26 11t-26 -11t-11 -26t11 -26t26 -11z" />
    <glyph glyph-name="uni1EEA" unicode="&#x1eea;" horiz-adv-x="700" 
d="M0 320v320h128v-320q0 -80 56 -136t136 -56t136 56t56 136v320h128v-320q0 -133 -93.5 -226.5t-226.5 -93.5t-226.5 93.5t-93.5 226.5zM474 706l-295 34l7 59l295 -34zM680 632q-30 0 -52 22t-22 53q0 30 22 52t52 22q31 0 53 -22t22 -52q0 -31 -22 -53t-53 -22zM681 671
q15 0 26 11t11 26t-11 26t-26 11t-26 -11t-11 -26t11 -26t26 -11z" />
    <glyph glyph-name="uni1EEB" unicode="&#x1eeb;" horiz-adv-x="700" 
d="M640 320q0 -133 -93.5 -226.5t-226.5 -93.5t-226.5 93.5t-93.5 226.5v640h128v-640q0 -80 56 -136t136 -56t136 56t56 136v320h128v-320zM474 706l-295 34l7 59l295 -34zM680 632q-30 0 -52 22t-22 53q0 30 22 52t52 22q31 0 53 -22t22 -52q0 -31 -22 -53t-53 -22z
M681 671q15 0 26 11t11 26t-11 26t-26 11t-26 -11t-11 -26t11 -26t26 -11z" />
    <glyph glyph-name="uni1EEC" unicode="&#x1eec;" horiz-adv-x="700" 
d="M0 320v320h128v-320q0 -80 56 -136t136 -56t136 56t56 136v320h128v-320q0 -133 -93.5 -226.5t-226.5 -93.5t-226.5 93.5t-93.5 226.5zM367 806h-171v45h171q28 0 47.5 -19.5t19.5 -47.5t-19.5 -47.5t-47.5 -19.5h-22v-11h-44v56h66q10 0 16.5 6t6.5 16q0 9 -6.5 15.5
t-16.5 6.5zM680 632q-30 0 -52 22t-22 53q0 30 22 52t52 22q31 0 53 -22t22 -52q0 -31 -22 -53t-53 -22zM681 671q15 0 26 11t11 26t-11 26t-26 11t-26 -11t-11 -26t11 -26t26 -11z" />
    <glyph glyph-name="uni1EED" unicode="&#x1eed;" horiz-adv-x="700" 
d="M640 320q0 -133 -93.5 -226.5t-226.5 -93.5t-226.5 93.5t-93.5 226.5v640h128v-640q0 -80 56 -136t136 -56t136 56t56 136v320h128v-320zM367 806h-171v45h171q28 0 47.5 -19.5t19.5 -47.5t-19.5 -47.5t-47.5 -19.5h-22v-11h-44v56h66q10 0 16.5 6t6.5 16q0 9 -6.5 15.5
t-16.5 6.5zM680 632q-30 0 -52 22t-22 53q0 30 22 52t52 22q31 0 53 -22t22 -52q0 -31 -22 -53t-53 -22zM681 671q15 0 26 11t11 26t-11 26t-26 11t-26 -11t-11 -26t11 -26t26 -11z" />
    <glyph glyph-name="uni1EEE" unicode="&#x1eee;" horiz-adv-x="700" 
d="M0 320v320h128v-320q0 -80 56 -136t136 -56t136 56t56 136v320h128v-320q0 -133 -93.5 -226.5t-226.5 -93.5t-226.5 93.5t-93.5 226.5zM307 772q0 -9 6.5 -15.5t15.5 -6.5q10 0 16.5 6.5t6.5 15.5v216h44v-216q0 -27 -19.5 -46.5t-47.5 -19.5q-27 0 -46.5 19.5
t-19.5 46.5v67q0 9 -6.5 15.5t-15.5 6.5q-10 0 -16.5 -6.5t-6.5 -15.5v-67h-43l-1 45v22q0 28 19.5 47.5t47.5 19.5q27 0 46.5 -19.5t19.5 -47.5v-67zM680 632q-30 0 -52 22t-22 53q0 30 22 52t52 22q31 0 53 -22t22 -52q0 -31 -22 -53t-53 -22zM681 671q15 0 26 11t11 26
t-11 26t-26 11t-26 -11t-11 -26t11 -26t26 -11z" />
    <glyph glyph-name="uni1EEF" unicode="&#x1eef;" horiz-adv-x="700" 
d="M640 320q0 -133 -93.5 -226.5t-226.5 -93.5t-226.5 93.5t-93.5 226.5v640h128v-640q0 -80 56 -136t136 -56t136 56t56 136v320h128v-320zM317 840q0 9 -6.5 15.5t-15.5 6.5q-10 0 -16.5 -6.5t-6.5 -15.5v-216h-44v216q0 27 19.5 46.5t47.5 19.5q27 0 46.5 -19.5
t19.5 -46.5v-67q0 -9 6.5 -15.5t15.5 -6.5q10 0 16.5 6.5t6.5 15.5v67h43l1 -45v-22q0 -28 -19.5 -47.5t-47.5 -19.5q-27 0 -46.5 19.5t-19.5 47.5v67zM680 632q-30 0 -52 22t-22 53q0 30 22 52t52 22q31 0 53 -22t22 -52q0 -31 -22 -53t-53 -22zM681 671q15 0 26 11t11 26
t-11 26t-26 11t-26 -11t-11 -26t11 -26t26 -11z" />
    <glyph glyph-name="uni1EF0" unicode="&#x1ef0;" horiz-adv-x="700" 
d="M0 320v320h128v-320q0 -80 56 -136t136 -56t136 56t56 136v320h128v-320q0 -133 -93.5 -226.5t-226.5 -93.5t-226.5 93.5t-93.5 226.5zM361 -93h-82v-82h82v82zM404 -50v-168h-168v168h168zM680 632q-30 0 -52 22t-22 53q0 30 22 52t52 22q31 0 53 -22t22 -52
q0 -31 -22 -53t-53 -22zM681 671q15 0 26 11t11 26t-11 26t-26 11t-26 -11t-11 -26t11 -26t26 -11z" />
    <glyph glyph-name="uni1EF1" unicode="&#x1ef1;" horiz-adv-x="700" 
d="M640 320q0 -133 -93.5 -226.5t-226.5 -93.5t-226.5 93.5t-93.5 226.5v640h128v-640q0 -80 56 -136t136 -56t136 56t56 136v320h128v-320zM361 -93h-82v-82h82v82zM404 -50v-168h-168v168h168zM680 632q-30 0 -52 22t-22 53q0 30 22 52t52 22q31 0 53 -22t22 -52
q0 -31 -22 -53t-53 -22zM681 671q15 0 26 11t11 26t-11 26t-26 11t-26 -11t-11 -26t11 -26t26 -11z" />
    <glyph glyph-name="glyph99" unicode="&#xe000;" horiz-adv-x="1688" 
d="M1663 515v-1q-23 -53 -110 -94q-44 -21 -139 -46q-72 -17 -159 -29q-88 -11 -112 -11q-52 0 -147 14q-24 6 -41 12q-4 0 -5 -4q1 -2 1 -5h-2q-3 2 -7 3q-3 -1 -4 -4v-1q0 -5 9 -6q19 -21 19 -35q6 -16 14 -35l1 -9q0 -44 -34 -98q-32 -44 -65 -44h-1q-26 0 -61 35
q-17 14 -30 14q-11 0 -24 -9h-2q16 17 32 17h5q15 0 56 -23q9 -4 17 -4q19 0 38 39q22 56 22 108v0q-8 -2 -17 -2h-9q-13 0 -28 7q-10 -31 -29 -42h-1q-11 9 -11 39q0 28 24 41q23 15 23 29q0 11 -29 30q-18 15 -18 39q3 35 14 35q20 -12 32 -35l4 -6q13 4 24 4q13 0 23 -4
v1q0 44 -21 102q-20 43 -40 43q-11 0 -55 -23q-12 -4 -20 -4q-19 0 -36 18h1q14 -9 26 -9h1q18 0 48 30q23 18 43 18q49 0 88 -88q14 -41 14 -77v-3q0 -29 -12 -34q-11 -10 -32 -18v-4v0q2 -4 4 -4q34 14 56 52q11 17 21 52v1v0q-2 -10 -21 -47l-12 -15h-1q2 11 2 14
q0 34 -17 83q16 63 16 111v5q-34 13 -46 39q-3 7 -3 8q7 -14 16 -23q22 -17 33 -17q0 51 -23 70q-5 3 -14 4q-35 0 -107 -64q-76 -58 -127 -84q-73 -37 -115 -37q-27 0 -35 18q-2 5 -2 11v10h1v-8q0 -23 29 -26h3q55 0 167 84q30 21 102 90q50 42 89 42q55 0 74 -83
q4 -25 4 -35h18q30 0 58 1q-13 25 -51 83q-23 36 -23 55q0 10 9 16v0q-5 -6 -5 -12v-3q0 -23 70 -100q21 -29 26 -38h4q95 0 131 -37q22 -22 32 -47q13 -36 13 -59v-2q0 -14 -4 -26q19 -3 37 -3h4q32 0 71 13q-12 -7 -39 -15q-30 -7 -52 -7q-6 0 -26 1q-13 -25 -50 -39
q-30 -10 -145 -23q-40 -9 -63 -11q-16 -3 -65 -15q-7 -2 -12 -2q-6 0 -17 5q-4 -2 -4 -5q4 -7 17 -7q16 0 71 19q25 6 30 6q49 -2 84 -2h27q233 0 383 56q49 20 83 53q7 9 16 23zM1423 254h-1q-37 13 -74 13q-24 0 -51 -7q3 -13 3 -21v-2q0 -40 -24 -88q-35 -61 -129 -61
h-15q-12 -20 -68 -86q-24 -32 -24 -49q0 -8 6 -13h-1q-9 5 -9 17q0 25 57 107l15 25h-1q-51 4 -71 4h-2q0 -32 -18 -75q-23 -41 -58 -41h-5q-48 0 -120 75q-78 70 -115 91q-78 49 -118 49h-6q-18 0 -25 -13q-3 -6 -3 -14v-5h-2v8q0 26 32 30h9q55 0 164 -68q35 -21 109 -82
q46 -35 74 -35q25 0 34 46q1 9 1 28q-29 -9 -42 -29q-4 -8 -5 -8v1q11 25 35 38q11 4 13 4v9q0 41 -15 106v1q13 36 13 54h1q14 -25 47 -65q17 -27 34 -27h1q7 0 44 20q13 -13 13 -27q-41 -30 -65 -30q-10 0 -26 6v-24v-14q9 1 81 2q18 39 18 60q0 35 -60 56q-59 24 -64 35
q-22 23 -36 60q0 4 -5 8l-9 17h1q50 -37 83 -48q16 -12 75 -46q47 -32 47 -72v-4q0 -27 -22 -64h1q29 0 67 15q27 15 39 41q15 35 15 65q0 9 -3 21q-26 -8 -79 -43q-8 -6 -11 -8q-4 12 -11 23q42 25 84 40q5 2 5 3q-11 10 -78 15q-51 0 -123 16q-29 6 -85 53h1
q63 -14 154 -14q14 -3 98 -16q33 -9 48 -17q21 -16 25 -28q19 4 35 4h10q43 0 87 -21v-1zM1148 622q19 -35 19 -60v-1q0 -53 -72 -90q-29 -17 -55 -33q-19 -10 -63 -49q-10 -6 -21 -8l-1 -4v-1q1 -3 3 -3q17 0 56 43q24 22 34 22q26 7 110 11q86 0 108 17q-40 11 -78 32
q-24 13 -24 14q6 9 10 22h1q63 -43 103 -56q5 9 5 24q0 46 -28 82q-21 22 -67 32q-18 4 -40 6zM1270 452h-2q-4 -2 -4 -6v-1q0 -6 8 -6q4 2 4 6v1q0 6 -6 6zM1268 285h-4q-3 -2 -4 -5v-2q0 -6 7 -6q4 0 5 6v2q-1 3 -4 5zM1248 444q-6 0 -7 -7q2 -7 7 -7v0q7 1 7 7v1
q0 5 -7 6zM1237 295q-7 -1 -7 -6v-2q1 -6 6 -6h2q6 1 6 6v2q0 6 -7 6zM1219 440q-8 -2 -8 -9q2 -7 7 -7h1q8 1 8 7v1q-1 8 -8 8zM1205 302h-1q-7 -1 -7 -7v-3q3 -5 8 -5q7 1 7 7v1q-1 7 -7 7zM1184 437q-9 -3 -9 -9q2 -8 8 -8h2q7 1 7 7v2q-1 8 -8 8zM1169 308q-7 -3 -7 -9
v-1q0 -6 9 -7q8 2 8 8q0 9 -10 9zM1145 434q-9 -2 -9 -9q2 -9 9 -9v0q10 1 10 9q0 7 -10 9zM1134 312h-2q-5 0 -7 -8v-2q0 -6 8 -9q8 0 10 9v1q-1 9 -9 9zM1119 623q-52 2 -82 4q0 1 -1 1q1 -10 1 -15v-18l-1 -3h1q14 5 24 5h4q22 0 62 -29q0 -16 -14 -27v0q-35 20 -45 20
q-19 0 -39 -38q0 -7 -7 -36q18 10 78 36q34 18 34 42v5q0 19 -15 53zM1106 431h-2q-8 -3 -8 -9v-2q0 -8 10 -9q9 2 9 9v1q-2 10 -9 10zM1098 317h-3q-8 -2 -8 -9v-2q1 -8 8 -8h3q6 0 8 9v1q-2 9 -8 9zM1065 425h-2q-9 -2 -9 -9v-2q0 -7 10 -10q8 0 11 10q-2 11 -10 11z
M1059 323h-2q-9 -2 -9 -8v-4q0 -6 10 -9q10 3 10 10v3q-2 8 -9 8zM1024 417q-10 -2 -10 -12q2 -10 12 -10q10 2 10 12q-2 10 -12 10zM1020 334q-11 -3 -11 -10v-3q0 -8 11 -10q11 2 11 10v2q-2 11 -11 11zM1028 211h-1q-29 39 -41 66q-2 5 -2 6h1q6 -15 35 -39q3 0 7 -30
q1 0 1 -3zM1012 651q-9 -2 -9 -9q2 -9 10 -9q9 2 9 8v2q0 7 -10 8zM1012 615q-11 -2 -11 -10q2 -10 9 -10h2q9 2 9 9v1q-1 10 -9 10zM1011 681q-9 -2 -9 -9q1 -8 9 -8q8 1 8 8q-1 9 -8 9zM1010 100h-1q-8 -2 -8 -7v-3q0 -6 8 -8q9 2 9 8v3q0 5 -8 7zM1008 138q-7 0 -10 -9
q1 -10 10 -10q10 1 10 9v2q0 6 -10 8zM1005 570q-7 0 -9 -10v-1q0 -10 11 -10q7 0 10 10q0 9 -12 11zM1007 70q-8 -2 -8 -9t8 -8h1q8 2 8 8v1q-2 8 -9 8zM1003 184h-2q-7 0 -9 -10q2 -10 9 -10h2q9 0 11 11q0 7 -11 9zM1004 703q-7 0 -8 -8q0 -5 8 -8q8 2 8 8q0 8 -8 8z
M999 515h-2q-11 -1 -11 -11v-1q0 -8 11 -10q12 3 12 11q-2 11 -10 11zM1001 46q-6 0 -8 -9q0 -6 9 -7q7 2 7 7v2q0 6 -8 7zM995 240h-1q-10 0 -11 -12q0 -8 11 -10q10 0 11 12q-2 10 -10 10zM993 721q-5 -3 -5 -7v-1q1 -6 6 -6q8 1 8 7t-9 7zM992 26h-3q-5 -2 -5 -6
q1 -7 6 -7h2q7 0 7 8q-2 5 -7 5zM981 735q-5 0 -6 -7q1 -6 6 -6h2q5 2 5 6q0 5 -7 7zM977 12q-6 -2 -6 -7q1 -6 6 -6h3q4 3 4 6q-1 7 -7 7zM917 429q-23 0 -28 -15q4 -16 26 -16h6q19 0 25 13v3q0 12 -29 15zM917 342q-21 0 -28 -12l-1 -4q5 -15 26 -15h4q27 3 27 15v2
q0 11 -28 14zM944 413q0 -11 -27 -13q-26 3 -26 13q0 11 26 13h1q24 -1 26 -13zM943 326q-4 -11 -26 -13q-26 3 -26 13v1q0 10 26 12v0q23 0 26 -13zM921 421q-8 -1 -8 -3v-1q4 -5 14 -5h5q3 0 4 2v2q0 3 -15 5zM917 334q-9 -1 -9 -4v0q5 -7 16 -7h6q4 0 6 3q0 6 -19 8z
M876 371q0 -9 -29 -30q-14 -13 -14 -29v-3v-1v-1v-3q0 -27 15 -41v-1h-28q-84 0 -216 13v1h-5q-90 7 -242 26q0 1 -1 1v-1q0 -5 5 -5q138 -25 180 -33v-1q-67 -50 -73 -50q-11 -7 -23 -7h-2q-23 0 -95 59q-62 49 -94 52h-1v0q29 -5 100 -65q63 -56 88 -56h5q21 0 60 30
q37 28 54 36l88 -10v-1q-61 -14 -94 -29q-40 -19 -98 -60q-8 -2 -11 -2q-33 0 -133 80q-81 63 -130 88q-7 5 -40 11q-71 15 -97 28v2q0 5 41 17q28 9 76 21q65 22 125 62q31 21 114 91q32 25 51 25q10 0 33 -18q84 -55 157 -89v-2q-12 -1 -19 -1h-8q-57 0 -131 54
q-24 15 -40 15q-30 0 -106 -69q-58 -47 -86 -52v-1h1q31 4 95 52q72 60 96 60q23 0 82 -45q47 -28 90 -28h4q22 0 48 9q65 4 149 6h12h20v-2q-9 0 -15 -30q-1 -3 -1 -8v-5q0 -27 39 -53q4 -4 4 -7zM792 433q-42 5 -95 5q-217 0 -486 -52q-46 -11 -78 -22v0h2q112 20 399 48
q53 6 127 12v-1q-5 -22 -5 -44q0 -33 11 -80h1v1q-5 29 -5 51v13q0 34 11 61l30 2h1q-6 -22 -6 -48q0 -34 11 -81h1v1q-4 23 -5 57q0 40 11 72q0 1 25 2v-1q-4 -22 -4 -45q0 -37 11 -82v0v1q-5 32 -5 58q0 41 11 70h1q29 2 36 2v0z" />
    <glyph glyph-name="_100" unicode="&#xe001;" horiz-adv-x="1770" 
d="M1716 360v-5q-142 -29 -223 -66q-89 -48 -98 -48l-384 30v2q-86 -19 -116 -41q-53 -34 -53 -116q0 -138 -59 -173q-44 -25 -73 -25v7q1 5 55 25q55 28 55 160q0 93 52 131h-2q-40 0 -57 -59l-2 -9q4 -34 4 -43q0 -79 -125 -100q-161 -16 -200 -39q-27 -25 -27 -57
q0 -27 25 -72v-9l-10 -3q-31 48 -31 73v23q0 52 54 73q41 18 166 29q121 21 121 57q4 0 4 25q0 10 -2 50q0 21 30 61h-5q-29 0 -54 7q-81 -34 -164 -100q-51 -20 -98 -20h-18q-48 0 -89 29v3q0 3 7 6q49 -18 86 -18q97 0 155 59l82 48q-151 32 -198 32h-21q-115 0 -247 -66
q-27 -5 -41 -30q-34 -34 -73 -34q-62 4 -62 19q0 17 64 63h41q40 -4 41 -4q171 75 223 75q54 4 75 4q42 0 239 -41q105 44 143 44v2q-94 0 -257 20h-11q-17 0 -103 -20l-2 4v3q0 3 57 22q7 8 48 14l11 -2h2l185 -18h72q33 0 89 6v41q-12 0 -73 3l-4 -3q-3 2 -48 5
q-22 0 -228 -23h-9q-15 0 -100 32v7l3 4q77 -20 104 -22q183 22 241 22l28 -2h2v2q-39 0 -157 48v2q-188 -41 -237 -41q-137 0 -261 66q-5 0 -32 12q-20 -9 -57 -9h-11q-30 0 -75 61v7q6 11 47 14h35q26 -5 66 -50q147 -62 168 -62q27 -9 107 -14q54 0 209 35v2
q-48 18 -125 79q-43 19 -96 19h-18q-21 0 -77 -16l-5 7q38 31 98 31q96 0 157 -59q32 -23 102 -57q39 7 66 7q-22 31 -25 57q3 42 3 52q0 59 -112 78q-125 11 -182 29q-59 30 -59 89q15 61 41 82l9 -7q-27 -53 -27 -70v-14q0 -64 125 -77q95 -3 177 -37q50 -21 50 -77
q-2 -12 -4 -46q13 -59 54 -59q-45 29 -45 157q0 93 -55 134q-35 23 -50 23v7q0 5 5 5q64 -17 91 -55q32 -39 32 -173q0 -38 29 -75q41 -39 121 -57q16 5 405 39q211 -107 252 -107q28 -11 62 -18v-5h-351q-1 0 -11 9h-11q-10 -3 -10 -16q5 -13 19 -13q2 0 13 9h353z
M1111 423h-7q-34 -2 -36 -11v-4q2 -10 36 -12h9q29 0 36 14q-9 13 -38 13zM1113 342h-7q-38 -3 -38 -12v-7q16 -9 34 -9h11q18 0 34 9v7q0 9 -34 12zM931 455q-24 9 -27 9h-2v-2q5 0 27 -9h2v2zM915 437q-15 0 -73 34h-4q-9 0 -41 -2v-2q39 -14 116 -32h2v2zM908 296h-2
l-98 -25v-2l16 -2h27q43 26 57 27v2z" />
    <glyph glyph-name="glyph100" unicode="&#xe002;" horiz-adv-x="1002" 
d="M262 860h7q40 0 51 -39q0 -3 1 -16q0 -36 -65 -174q-11 -40 -11 -73q0 -42 17 -77h3q79 68 79 74q17 32 19 52q0 22 -18 33h-7q-11 0 -28 -22h-2v2q11 34 33 34q33 0 43 -50q0 -51 -90 -146l-2 -3q16 -4 26 -4q76 0 98 80v6q-12 17 -12 33q0 5 2 13q-13 24 -13 51v2
q0 78 83 116q10 3 17 3h16q40 0 82 -53q20 -39 20 -66q0 -23 -14 -56l1 -9q0 -11 -11 -36v-1q0 -36 31 -69q7 -4 12 -4q32 0 46 38q4 14 4 38v36q0 27 37 58q24 12 45 12q61 0 84 -49q6 -18 6 -40q0 -67 -41 -91q-17 -5 -31 -5q-21 2 -23 7v1h3q48 0 63 39q3 6 3 16
q0 47 -34 66h-12q-14 0 -25 -14q-11 0 -13 -19q-7 -4 -8 -6v-10q0 -8 -7 -17l2 -9q0 -66 -20 -80v-2q54 -30 71 -84q2 -8 2 -15q0 -27 -45 -74q39 -26 71 -26h10q53 0 70 85v10q0 43 -50 63h-7q-19 0 -39 -20v1q0 18 39 35q5 2 15 2h15q47 0 66 -53q4 -15 4 -30v-8
q0 -67 -49 -127q-28 -24 -67 -24q-59 0 -142 39q-49 -52 -49 -104q0 -79 63 -122q22 -8 37 -8h8q18 0 41 7v-3q-41 -26 -64 -26q-86 0 -117 96q-7 26 -10 42h-1q-7 -25 -35 -89q-17 -40 -17 -109q0 -26 82 -53q20 -5 20 -8v-1h-13q-42 0 -99 30q-33 30 -33 85v19
q0 47 36 127q19 54 19 84v7q-8 107 -8 112h-1q0 -56 -34 -121q-35 -54 -88 -54q-34 2 -70 11q-42 -20 -79 -20h-9q-31 0 -60 17q-7 -12 -7 -37v-6q0 -67 50 -85h1v-2l-8 -2q-49 0 -62 91q-1 0 -1 15q0 19 5 42q-26 36 -27 65v20q0 40 50 80h3q-23 -27 -23 -56v-10
q0 -32 23 -55q30 28 69 28h9q13 0 54 -7q57 61 91 179v1h-2q-73 -107 -149 -107q-46 0 -59 46l-3 26q2 39 20 77q-36 33 -36 92v13q0 63 39 143l58 124v7q0 20 -31 25h-4q-40 0 -73 -91h-3q20 121 86 121zM266 400v-11q0 -39 21 -39q34 4 73 37l-9 -1q-50 0 -82 14h-3z
M645 380v-1q18 -45 45 -79q13 17 13 34q-8 29 -23 29q-8 6 -12 13q-15 2 -23 4zM483 359q-20 -67 -60 -141q-16 -23 -23 -36h1q41 0 69 79q15 49 15 96v2h-2zM602 298q0 -22 -1 -26q1 -13 1 -25v-39q13 19 28 34q-26 44 -26 56h-2z" />
    <glyph glyph-name="glyph101" unicode="&#xe003;" horiz-adv-x="979" 
d="M797 873q56 0 71 -95q0 -5 24 -95q5 -18 5 -36q0 -64 -72 -84q-27 -8 -33 -13l-1 -39q5 -124 5 -137q0 -196 -100 -278q-26 -18 -53 -26q14 -13 20 -27q10 -13 37 -13q15 0 34 16q9 4 13 4q7 0 10 -13v-5q0 -20 -26 -49q-10 -9 -19 -10q3 -5 3 -8q0 -11 -18 -15h-2
q-15 0 -20 14q0 4 -1 4l-19 -3q-3 -23 -21 -23q-14 0 -20 12q-2 7 -2 10l1 3q-10 3 -13 6v-1q5 -36 24 -59q22 -21 47 -21h4l5 1q13 0 13 -9q0 -18 -30 -34q-17 -6 -34 -6q-14 0 -31 4q0 -7 -17 -11h-5q-13 0 -17 19v6l1 3q-6 2 -22 15q-3 -2 -9 -2h-5q-15 0 -22 21v3
q0 12 11 20q-3 7 -7 20h-1q-7 -16 -29 -54q0 -1 1 -1q10 -5 10 -15v-1q-1 -15 -11 -15h-8l-1 -4v-4q0 -11 5 -11q7 -4 7 -13q0 -17 -20 -19h-3q-16 -57 -26 -57q0 -1 -6 -1q-8 0 -12 12q-2 9 -5 40h-4q-12 2 -12 10v3q0 7 10 10q-8 26 -8 28v2h-2q-14 0 -16 19q0 11 12 17
q6 36 6 40q0 15 -10 17q-7 -1 -7 -3q1 -6 1 -8q0 -11 -15 -13q-11 2 -11 6q-14 -6 -44 -31q3 0 7 -14v-3q0 -11 -15 -15h-1q-9 0 -12 8q-17 -23 -38 -26h-4q-11 0 -13 14q0 7 9 25q-13 9 -13 23q0 10 13 11h2q6 0 14 -8q0 3 9 23q-14 9 -14 19v4q3 14 14 14q7 -1 12 -6h1
q8 29 10 39q-6 -4 -28 -8q-13 -8 -33 -23q-10 -1 -10 -5q0 -14 -22 -18h-1q-10 0 -15 10q-37 -21 -56 -21h-6q-28 0 -38 31v4q0 10 25 10q29 0 36 12q3 7 6 26q5 10 13 10h3q4 0 11 -4q4 11 9 22q-26 5 -45 9q-7 -8 -15 -8h-5q-15 0 -17 19v3q-23 0 -52 28q-6 10 -6 20
q3 20 19 20q6 0 19 -6v0q5 19 19 19q15 0 18 -22v-5q4 0 20 -5v2q0 9 17 13h3q11 0 14 -12v-6l46 -4q8 0 17 6q-17 13 -17 17q-11 -8 -17 -8q-18 5 -18 18v5q0 15 10 21q-3 3 -11 18h-1q-4 -2 -6 -2h-3q-13 0 -15 20v1q0 11 9 21q-10 17 -10 33q0 24 16 32h2q14 0 30 -37
q15 -25 58 -38q9 -2 13 -2q15 1 19 3q-22 38 -22 86q0 117 135 229q36 27 124 87q25 20 25 21q-10 31 -10 55v11q0 59 44 91q24 18 116 40q68 29 83 29q6 1 9 1zM569 704q0 -7 2 -28l93 90q52 51 72 58q21 11 41 11q1 0 6 -1q9 4 20 4q28 0 39 -32q2 -12 2 -22
q-2 -29 -2 -31v-10q0 -60 -17 -97q-14 -35 -14 -55h1q28 12 36 22q17 19 17 54q0 21 -17 111q0 17 -1 22q1 4 1 10v9v1q-14 44 -50 44q-20 0 -81 -27l-33 -12q-21 -17 -31 -22q-49 -22 -64 -37q-20 -27 -20 -62zM282 306v-4v-3v-3v-4q0 -56 43 -100q19 14 39 14q37 0 62 -40
q4 -13 4 -22q0 -14 -5 -26q17 -11 34 -18q8 22 30 35q15 9 32 9q38 0 54 -46q3 -8 3 -20v-5l-1 -3h1q23 0 80 20q62 26 95 106q29 73 29 169q0 19 -4 137q0 70 37 173q22 77 22 103v3q0 35 -20 48q-7 3 -12 3q-29 0 -87 -46q-15 -13 -116 -113q-71 -65 -115 -93
q-64 -43 -109 -83q-46 -46 -59 -73q-37 -66 -37 -118zM798 806q0 -1 1 -1q-12 -17 -12 -35q-13 -62 -29 -99q-18 -29 -36 -78q-15 -29 -48 -95q-14 -20 -33 -61q-37 -49 -46 -71q-24 -35 -32 -58h-2q0 8 34 69l48 108q59 123 91 202q0 4 44 90q12 22 20 29zM780 797l1 -1
q-65 -96 -98 -163q-32 -68 -86 -197q-25 -50 -65 -120q-6 -12 -11 -24h-1q0 6 50 105q23 91 51 151q44 102 66 130q16 30 31 47q29 32 31 32q12 20 31 40zM485 553h2q0 -4 26 -41v-1q0 -1 -2 -1q-26 14 -26 41v2zM466 536h1q0 -7 39 -43l-2 -1h-1q-24 9 -30 21q-3 9 -7 23z
M415 483h1q0 -7 31 -39q0 -2 -1 -2q-31 12 -31 37v4zM399 465h1q8 -15 30 -25q12 -6 12 -7q0 -2 -3 -2q-30 7 -30 14q-2 0 -10 20zM705 413h1q53 -5 53 -8v-1q-6 -5 -18 -5q-15 0 -32 12q-4 0 -4 2zM694 396q30 -13 43 -13h17q2 0 2 -1q-9 -8 -21 -8q-19 0 -42 21q1 0 1 1z
M344 382h1q27 -26 43 -44v-1q0 -1 -2 -1q-22 7 -33 27q-9 15 -9 19zM333 360v0q16 -17 32 -20q20 -10 23 -13q0 -1 -2 -1h-1q-39 0 -52 34zM336 332q3 -1 3 -3v-4q0 -2 -4 -3q-4 0 -5 5q0 4 6 5zM680 320q4 -10 26 -17q28 -4 36 -6v-1q-7 -7 -19 -7h-3q-26 0 -42 30z
M329 312q3 -1 4 -3v-4q-1 -3 -5 -3q-4 1 -4 6q0 4 5 4zM675 292h1q17 -17 36 -17h8q19 0 19 -3q-12 -9 -25 -9h-3q-23 0 -36 29zM181 288q-1 -8 -1 -9q1 -15 1 -20l2 1h2q7 -1 7 -8q0 -2 -3 -6q8 0 8 -6q-1 -3 -4 -5h-2q-5 0 -5 5v1v4q-1 0 -3 1q3 -18 6 -18q7 0 8 -7
q-2 -6 -5 -6q5 -13 22 -40q14 -19 27 -35v-1h9q13 0 24 -6v-1q-12 0 -28 -9q-13 -13 -30 -13q-57 5 -57 8q0 1 8 1q-2 13 -12 13t-15 -11q6 -1 6 -3h-2q-11 0 -35 9v1h5q-4 21 -16 21h-1q-9 0 -13 -17q12 -4 13 -5l-2 -1q-7 0 -29 9h-3v-6v-7q0 -26 34 -36l3 -1q1 8 7 8h2
q8 0 8 -9v-2h1q5 0 31 -4q-2 2 -2 3v3q1 3 4 4q4 0 6 -5q-1 -5 -4 -5v0q19 -4 33 -5q2 0 25 5v-2q-2 0 -12 -9q-9 -5 -22 -46h-2h-1q-9 6 -14 6h-1q-9 0 -10 -20q0 -28 -44 -28h-10q-11 -1 -11 -3v-1q13 -14 31 -14q25 0 91 29q64 24 71 32q8 6 23 46l5 8h1v-1
q-11 -84 -21 -104q-7 -18 -11 -21q-1 0 -1 1q3 7 3 12q-6 4 -10 4h-1q-11 0 -11 -14q0 -9 11 -17q1 0 6 6v-1q0 -8 -17 -42h-1v0q0 3 1 10q-8 6 -13 6h-2q-6 0 -8 -9v-1q0 -9 10 -19q0 2 4 7h1v-1q-6 -14 -6 -18v-3q1 -9 8 -9q4 0 11 5q-2 0 -2 5q-3 -2 -6 -2q-4 2 -4 5
q0 6 6 6q5 0 5 -6l4 1v0q3 -2 3 -4h1q13 12 13 15q-11 0 -11 7v2q0 6 9 7q7 0 8 -9q1 1 10 14q-5 0 -7 6q0 5 6 6q6 0 6 -5q22 21 44 33v1q-6 2 -6 7v2q0 5 9 9q-5 10 -5 19v1q0 10 3 10v12q0 5 1 10h2v-7q0 -40 41 -51q8 0 8 -1q20 0 43 24h2h1q-15 -16 -15 -19
q0 -8 -20 -16q-1 0 -1 -2q7 -11 7 -25l-2 -27h4q3 -2 3 -6v-3v-1v0q0 3 3 4h5q4 -2 4 -6q-1 -7 -6 -7q-6 0 -6 9q-5 -5 -7 -5l1 -1v-11v-3h4q8 -2 8 -9q-2 -8 -8 -8h-2q1 -12 3 -22q4 4 5 4q7 -2 7 -6q-2 -6 -6 -6q-2 0 -5 2v-4l2 1h3q4 -2 4 -6q0 -5 -7 -5q1 -14 1 -18
q3 3 6 3h3q1 0 3 -3v-3l-1 -3q7 0 7 -4q1 0 10 30q-2 0 -8 8q0 -3 -2 -3h-4q-3 1 -3 4q1 6 6 6q2 0 9 -9q6 -4 8 -4h7q11 0 11 16q-2 10 -10 10h-2l-1 -1l-1 2q3 2 5 2q-1 8 -1 15v4q-2 0 -4 4q0 1 1 1q10 -3 12 -3h2q7 0 9 11q-2 14 -10 14h-1q-4 0 -9 -1v1q0 1 7 4
q13 28 56 105h1q0 -21 8 -46q3 2 5 2q6 -2 6 -6q-3 -5 -6 -5q2 -5 2 -6h4q1 0 4 -4v-4l-3 -3q11 -27 42 -39q16 -5 39 -9q-3 3 -3 5q0 6 6 6t6 -6q0 -5 -4 -5v0h6q16 0 27 11q-4 0 -11 2l1 -2v-3q0 -2 -3 -3h-4q-2 0 -2 4v2q1 3 4 3l-15 8q-25 11 -36 46q-11 57 -23 68
q-6 7 -6 8v1h1q19 -9 27 -17q22 -22 39 -22q-4 4 -4 7q2 9 8 9h1q8 0 8 -9q-1 -7 -4 -7v-1h13q-4 4 -4 9q3 6 7 6h2q6 0 7 -8l-2 -4h1q2 0 18 5q-4 3 -4 6q0 6 5 6q4 -2 4 -6v-3v0q10 6 20 14q-4 0 -4 6q0 4 5 6q5 -1 5 -4q11 11 11 25q-16 -14 -32 -14q-35 0 -45 22
q-4 6 -5 6q-37 -15 -71 -15q-12 1 -18 1q-13 -11 -26 -11v0v1q31 19 31 54q0 40 -43 51q-4 1 -9 1q-32 0 -49 -45q-2 -11 -2 -17v-7l1 -8h-1q-2 4 -25 12q-35 18 -36 18q-5 -3 -17 -5q-5 1 -5 3q39 22 39 50v3q0 33 -32 54q-10 5 -22 5h-1q-41 0 -55 -49q0 -2 -1 -13v-2v0
q0 -10 11 -31h-1q-17 15 -17 37v6q0 10 4 23q-12 14 -29 45q-1 3 -2 3h-2q-33 0 -66 31q-8 9 -20 36q-4 6 -5 6zM339 282h3q1 0 3 -4v-2q0 -6 -6 -6q-6 2 -6 7q0 4 6 5zM331 261q3 -1 3 -5v-1q0 -2 -3 -3h-3q-3 1 -3 5q1 4 6 4zM749 253h3q3 -1 3 -5v-1q-2 -4 -6 -4
q-3 1 -3 6v1q0 1 3 3zM350 251q7 -2 7 -8v0q0 -6 -6 -6q-5 0 -7 5v5q2 4 6 4zM404 243h5q27 0 35 -30q1 -5 1 -8q0 -6 -5 -13h-1q-2 0 -4 9q-2 0 -21 19q-10 9 -29 15h-4v1q10 7 23 7zM362 237q5 -2 5 -6q-2 -5 -5 -5q-3 1 -5 4v1q1 6 5 6zM710 232h3q1 0 4 -3v-3
q0 -5 -5 -5q-6 2 -6 7q1 3 4 4zM378 228h1q3 -1 3 -5q0 -5 -5 -5t-5 5q0 4 6 5zM351 223q2 -1 2 -2v-3q0 -1 -2 -2h-2q-2 0 -2 4q0 2 4 3zM739 222h1q6 0 6 -7t-9 -8q-5 0 -5 6q0 9 7 9zM665 219h1q19 -18 38 -18q22 -4 22 -7q-7 -7 -20 -7q-26 0 -41 32zM322 217q8 -1 8 -7
q-2 -7 -8 -7q-6 1 -6 7q1 7 6 7zM341 215q3 -1 4 -3v-3q0 -1 -3 -3h-2q-1 0 -3 3v3q1 2 4 3zM211 211q6 -1 6 -7q0 -5 -6 -6q-5 0 -6 7q1 6 6 6zM408 209q6 -1 6 -6q-1 -5 -4 -5h-4q-4 1 -4 5q0 5 6 6zM498 196h1q6 0 8 -9q0 -7 -9 -8q-8 1 -8 8v1q1 8 8 8zM658 195v0
q21 -25 55 -25h5q2 0 2 -1v-1q-8 -8 -21 -8h-4q-23 0 -37 35zM734 194q3 -1 4 -4v-4q0 -1 -3 -2h-3q-2 0 -3 2v4q0 2 5 4zM230 192q5 0 8 -10q0 -7 -10 -8q-8 3 -8 9v1q0 7 10 8zM246 186q8 -1 8 -8q0 -2 -4 -6h-3q-4 0 -7 5v3q0 5 6 6zM435 179h1q4 -2 4 -5q-1 -6 -6 -6h-1
q-4 2 -4 6q0 5 6 5zM548 178q27 0 35 -28v-17q-1 -7 -3 -7h-1q-1 0 -8 12q-1 0 -21 19l-23 8q-4 4 -4 7q11 6 25 6zM464 178q4 0 8 -6v-3q0 -9 -9 -9q-7 0 -8 10q3 8 9 8zM729 172q3 -1 4 -3v-4q-2 -4 -6 -4q-4 2 -4 6t6 5zM363 169q10 -1 10 -3q-5 -6 -5 -11q3 -14 14 -14
h2q3 0 8 4q1 0 2 -8q-5 -32 -32 -32v0q-23 0 -31 25q0 5 -1 6q0 24 27 33h6zM656 167h1q4 0 6 -3v-3q-2 -4 -5 -4q-4 1 -5 4v3q0 1 3 3zM258 165q3 -1 4 -4v-4q-1 -4 -5 -4q-6 2 -6 7q2 5 7 5zM242 164v0q4 -2 4 -6v-1q-2 -4 -6 -4v0q-1 0 -4 4v3q2 4 6 4zM606 163h2
q8 -1 8 -8v-2q0 -6 -8 -8h-2q-7 0 -8 10q2 8 8 8zM496 161h2q6 0 6 -6v-1q-3 -4 -6 -4q-5 2 -5 6v2q0 2 3 3zM442 153h3q1 0 3 -3v-3q0 -2 -3 -3h-3q-3 2 -3 5q1 3 3 4zM631 152h2q4 -3 4 -5q-1 -7 -7 -7q-4 0 -5 6q1 6 6 6zM462 148h3q6 0 8 -9v-2q0 -6 -9 -8q-8 3 -8 11v1
q1 7 6 7zM705 147h1q4 0 6 -3v-3q0 -1 -3 -4h-3q-1 0 -4 4v3q0 1 3 3zM674 141h1q6 0 6 -8q-2 -6 -7 -6q-7 1 -7 7v3q3 4 7 4zM443 135h4q1 0 2 -4q-2 -4 -3 -4h-4q-2 0 -2 4q1 3 3 4zM618 131h3q1 0 3 -4v-2q0 -6 -6 -6q-6 2 -6 7q2 5 6 5zM450 123h3q4 -2 4 -6
q-2 -5 -7 -5q-3 1 -4 3v4q0 1 4 4zM650 121h5q4 -3 4 -7q0 -3 -4 -6h-3q-6 0 -6 6v3q0 1 4 4zM673 118h2q5 0 5 -4q0 -5 -5 -5h-2q-1 0 -3 3v3q0 2 3 3zM595 118q9 -2 9 -8v-3q-2 -8 -9 -8h-1q-9 2 -9 9q2 10 10 10zM78 113q5 -2 5 -7q-3 -6 -7 -6t-7 7q0 6 9 6zM515 109
q10 -1 10 -3q-5 -6 -5 -12q0 -9 13 -12h2l9 3l1 -7q0 -22 -24 -31h-6h-3q-21 0 -29 25v8q0 19 24 28q5 1 8 1zM90 102q5 -1 5 -6q-1 -3 -4 -4h-4q-1 0 -3 3v3q2 4 6 4zM224 101q6 -1 6 -6v-1q0 -6 -6 -6q-6 1 -6 6v1q0 6 6 6zM622 101h4q1 0 3 -4v-2q0 -4 -3 -5h-4
q-4 1 -4 5q0 3 4 6zM202 98h4q5 -4 5 -8v0q-2 -9 -8 -9h-1q-8 2 -8 8v4q4 5 8 5zM596 97q4 0 6 -4v-3q0 -1 -4 -4v0q-4 0 -6 4v1q0 4 4 6zM183 89h3q3 -1 3 -5v-1q0 -1 -3 -3h-3q-1 0 -3 3v1q1 5 3 5zM270 67q5 -2 5 -6v-3q0 -1 -4 -3h-2q-6 0 -6 6q0 4 7 6zM383 65h1l6 -11
q21 -19 50 -19q15 0 25 8h2v-1q-32 -61 -60 -61h-5q-24 0 -35 27q-2 3 -2 8v3q0 20 18 46zM256 57q6 0 7 -9v-1q-1 -8 -8 -8q-9 0 -9 10q0 7 10 8zM270 50h2q6 0 6 -6q0 -5 -5 -7q-8 1 -8 7q0 2 5 6zM254 36q7 0 8 -9q-2 -8 -8 -8v0q-10 1 -10 8q0 8 10 9zM375 17
q4 -24 24 -24h3q11 0 18 12q-5 2 -8 2h-2q-6 0 -17 -11v1q4 7 4 11q0 9 -14 13q-8 0 -8 -4zM228 17q5 0 6 -6q0 -6 -6 -6t-6 7q2 5 6 5zM205 15h1q10 -1 10 -9q-2 -10 -9 -10q-8 0 -10 9q1 10 8 10zM604 13h1q4 0 5 -3v-4q0 -1 -3 -3h-3q-2 0 -3 3v4q0 1 3 3zM618 7
q4 0 5 -4q0 -4 -6 -5h-1q-1 0 -3 3v1q0 5 5 5zM332 4q5 0 7 -6q0 -5 -7 -8q-6 0 -7 9q3 5 7 5zM184 -2q4 -2 4 -6t-5 -5q-4 1 -5 3v4q2 4 6 4zM159 -13q5 0 7 -7q-2 -5 -6 -5q-7 1 -7 7q2 5 6 5zM134 -18h3q7 0 8 -8q-2 -7 -8 -7h-3q-5 3 -5 8t5 7zM541 -21q9 -2 9 -8v-1
q0 -5 -6 -8h-3q-9 0 -9 10q3 7 9 7zM326 -30q7 -2 7 -8q0 -8 -10 -9q-7 3 -7 9q0 7 10 8zM318 -55q4 -1 4 -6q0 -2 -4 -4q-6 0 -6 6q2 4 6 4zM430 -64q9 -3 9 -11q-1 -8 -8 -8h-3q-6 0 -7 8v2q0 7 9 9zM308 -65h2q3 -1 3 -5q-1 -3 -4 -5h-1q-5 0 -5 5t5 5zM296 -70h3
q3 0 3 -4q-2 -4 -5 -4q-4 1 -4 5q1 3 3 3zM561 -74h1q7 0 8 -9q0 -4 -6 -7h-3q-8 1 -8 7v2q2 7 8 7zM423 -91q6 0 6 -7q-2 -5 -7 -5q-5 2 -5 6v2q2 4 6 4zM581 -94h1q7 -1 7 -7v-2q-1 -7 -7 -7h-1q-6 0 -8 8q1 8 8 8zM599 -107h1q5 0 5 -5q0 -3 -4 -4v1v2t-2 6zM258 -111h2
q5 0 5 -5t-5 -5h-1q-1 0 -4 3v2q0 4 3 5zM613 -112q3 -2 3 -3v-2q0 -1 -2 -2h-2q-2 0 -2 1v3q0 1 3 3zM428 -152h5q4 -3 4 -6q-2 -6 -6 -6t-7 4v2q0 4 4 6zM433 -199q6 -1 6 -5q-1 -5 -4 -5q-5 0 -5 6v0q0 1 3 4zM424 -220q2 -13 7 -13q6 2 8 4h-2h-1q-6 0 -6 5v4l-3 -1z
" />
    <glyph glyph-name="glyph102" unicode="&#xe004;" horiz-adv-x="1161" 
d="M1088 713q-2 -23 -4 -37h-2v1q3 13 3 26v6q0 8 -1 19v1h1q3 -12 3 -16zM1088 293q0 -39 -24 -68v1q22 35 22 65q0 29 -19 66q21 -27 21 -64zM1084 735v-5h-2v5h2zM1082 741v-6h-1v6h1zM1080 279q-3 -4 -3 -8h-1v4h-1v-1q0 -3 2 -9q-2 0 -2 -3h-2v3h-1v-1q1 -3 1 -4v-2h-1
v3h-1v-1q1 -3 1 -4l-3 1q2 -2 2 -4q-3 -6 -4 -6l1 -3v-1q-2 0 -5 -4v1l1 3h-1l-3 -5h2q0 1 1 1l1 -3v-1l-2 1l1 -2v-2l-3 2q-4 -10 -9 -16h1q0 1 2 1v-1q-1 -2 -3 -2q0 1 -1 1v-1q1 0 1 -2l-5 -5q0 1 -1 1q-3 -3 -3 -6l-3 1l-3 -5q1 0 1 -1q-1 0 -1 -2l-3 2l-8 -7v3
q-2 -1 -2 -3q1 0 1 -1l-3 -1l-2 1q-2 -3 -2 -4l-2 1v-1q1 0 1 -1q-12 -5 -12 -8q-1 0 -1 1q-18 -5 -22 -5l-5 1h-2v-1h4v-1h-1q-3 0 -10 1q-2 0 -19 -1q-4 0 -23 2q-2 -1 -4 -1l1 3l-2 -2l-9 2l1 2q-1 0 -8 1v2h4v1l-12 3l2 2q-3 0 -5 2q0 -2 -2 -2q0 3 -15 11q-3 1 -4 1
l1 3l-3 -2h-2l1 3l-2 -1h-2q0 5 -40 7h-26q-9 0 -25 -2v-2h4q14 3 21 3q3 0 3 -1l6 1h8q48 -6 57 -16q2 0 12 -10q32 -18 69 -18q72 0 110 60v-2q-34 -61 -112 -61q-13 0 -50 8q-4 0 -12 -6q-3 1 -4 1l-5 -3q-3 2 -4 2q-2 0 -8 -3q-4 3 -6 3q0 -3 -8 -6q-5 3 -8 3
q0 -3 -3 -3h-3l-4 3l-9 -4q-10 3 -12 3q0 -2 -4 -4h-3q-6 0 -6 2q-1 0 -5 -1l-13 1l1 3v1h-1q0 -1 -2 -4q2 0 2 -1h-3q-4 0 -4 4h-4l-4 -3h-5q-4 5 -18 7q0 1 -1 1q-1 -2 -3 -2h-1l1 2v1h-1l-3 -1v4h-1v-5q1 0 1 -1h-1q-1 0 -4 2l-7 -1q-1 4 -24 14q0 1 -2 1q0 11 50 25
q37 8 60 8h17q41 0 67 -21q21 -14 51 -14h4q3 0 5 -1q38 0 70 23q47 47 47 90q0 63 -61 97h-3l3 -4q-1 0 -1 -1h1l2 1q0 -4 4 -4l-1 -2h1q0 1 2 1q0 -2 4 -7h-2q-28 21 -121 41q-15 4 -39 13v-7h6v-1h-3v-1q4 0 4 -3q-1 0 -1 -1h1l1 2q-2 0 -2 3h1q2 0 2 -7h8l-1 -2
q1 0 1 -1q-1 0 -1 -2h3v3h1v-5h10v-3l-2 1v-1q1 0 1 -1q-1 0 -1 -2h1q0 2 1 2v-4h-1l-17 10l1 3v1h-1v-2h-1q0 1 -12 9q-3 3 -3 4h3v2q0 2 -4 4h-1v-3l2 -3h-1l-10 11h2q0 3 -2 3v-3h-2l-16 13h1q22 -10 22 -13v-1l3 1q4 -2 6 -2v1q33 -11 34 -12l2 2h3l-1 -3l2 1h2
q3 -2 4 -2t1 1l12 -5q2 1 5 1h1v-1h-3v-2l7 2q7 -2 8 -2v3l-15 4v1h3q0 3 -3 3v-3q-2 0 -31 12v1h3v2q-1 2 -3 2h-1l1 -2h-1q-8 5 -10 5l1 2l-3 2v-3q-5 0 -15 8l-3 -1h-1l1 2q-1 0 -1 1l-3 -1h-1l1 3q-4 1 -4 2l-2 -1h-2l6 5l-3 2q-1 -6 -4 -6h-1l1 3l-8 4q0 -1 -1 -1
q-2 5 -20 10v1h4q4 0 15 -4l2 4h-1q-2 -1 -5 -1q0 3 -5 3v1l6 1q0 -2 3 -2h5v2h-3l2 3h-7q-5 -4 -10 -4q-3 1 -6 1v1q0 3 3 3l3 -1q9 3 9 5h-5v-1l-6 1l-7 -1v4h2l3 -2q0 3 2 3q59 -16 141 -16q0 -1 10 -1h4v1q-86 4 -122 15q0 1 -16 3v2h3q63 -17 130 -17q0 -1 19 -4v-3
q-10 -4 -14 -4h-13q0 -2 3 -2h4l2 1v-2l7 1l7 -5l3 1h1q39 -16 42 -22v-4q-43 16 -148 16q1 -3 1 -7h1l4 3h4q5 -5 11 -7v-2h1v3q64 -13 88 -24q0 -3 -2 -3l-9 4q-3 -1 -4 -1l1 2h-1l-3 -1q0 2 -4 4l-2 -1h-3l1 2h-1q-3 -1 -4 -1h-1v1h2v2h-1q-2 -2 -4 -2h-1v2h2v1h-1
q-2 -1 -4 -1t-9 2q-2 -1 -8 -1l2 -3l2 2q4 0 11 -3q2 1 5 1l-1 -2l2 1l8 -1l-1 -3l2 1l7 -1l-2 -3l3 2h3l-2 -3q3 1 4 1h2v-1h-3v-1h1q3 1 4 1l-1 -2l2 1h2l-2 -3q3 0 8 -2q0 1 2 1v-3l2 2v-2l-1 -2h1q0 2 3 2h1l-3 -4h2q0 3 2 3h2l-3 -4h1q0 3 3 3h1l-2 -4h1q0 2 3 2h1
l-1 -2l2 1h1l-1 -2l3 1q14 -6 35 -29h-1q-1 0 -8 7v-2q1 0 6 -6q-1 0 -1 -1q13 -16 14 -16q0 1 2 1l1 -2v-2l-3 2v-2l3 -1q0 1 1 1l4 -6v-1l-1 -3h1q0 1 1 1v-1l-1 -3h1q0 2 2 2v-2l-2 -2v-1h2v2h1v-2l-1 -3v-1h1v2h1q5 -18 5 -32v-11q0 -3 2 -5zM1078 748v-1h-1l-1 5
q2 0 2 -4zM1078 665v-4l-2 -1v1q1 3 1 4h1zM1077 305h-1v-8h1v8zM1077 291h-1v-12h1v12zM1077 707v-3q0 -1 -1 -1l1 -3q-1 -2 -1 -5q1 0 1 -1h-2l1 -3v-4l-3 2v-2l2 -2l-2 -7h-1v3h-1q0 -2 -2 -4v-1h2v2h1v-2q-3 -5 -3 -8h-1v2h-1v-1l1 -2q-9 -16 -9 -17h-1v2q-3 0 -3 -2h3
q-5 -8 -7 -8q0 1 -1 1v-1q1 0 1 -1l-27 -24q1 0 1 -1q-1 0 -4 -1q0 1 -1 1q-8 -5 -8 -8l-2 1v-1q1 0 1 -1q-20 -11 -22 -11v-1h2v-3q-4 2 -4 3q-9 -5 -11 -5l1 -3h-1l-3 2v-2q1 0 1 -1h-1l-2 1q-7 -4 -10 -4v2q-2 -2 -3 -2v-1h5q1 0 1 1q2 -1 18 -2l-1 2q5 0 5 4l3 -1
q0 3 31 18q0 1 1 1q0 -1 2 -1v1q-2 0 -2 2q2 0 5 2v-1q14 7 19 13q2 0 14 12v-2q-38 -37 -73 -49v-1q37 -7 37 -12q-3 0 -10 -3l-2 2q-2 -2 -5 -2q0 2 -2 2q0 -3 -4 -3q-2 1 -3 1q-1 -2 -3 -2l-3 1q-2 -1 -5 -1v1l-2 -1l-3 1v-1q1 0 1 -1h-2l-3 1q0 -3 -3 -3l-6 2
q0 -2 -1 -2q0 2 -2 2v-2q2 0 2 -1h-2l-4 3q-1 -3 -1 -4h-4q-2 0 -2 2q-4 -1 -4 -2l-3 1h-1v-1h2v-2h-3v3q-4 -4 -21 -8q-9 -5 -57 -22v-1h5q44 10 56 10h6v-1q-15 0 -56 -9v-2q10 0 17 -2q1 4 8 4l-1 -3v-1h1q0 3 5 5h1l-1 -3v-1h3q2 0 2 3h-2v2l2 -1q16 2 16 5q2 -1 4 -1
q2 1 4 1l-2 -2h2q2 1 4 1v1h-4v2h5v-2l3 2h1v-3q2 0 2 3h-2v1h1l7 -1q0 2 2 2q3 -1 5 -1q0 2 3 2h1q2 0 2 -1l2 1q2 0 2 -1q5 1 9 4v-3h1v3h4l2 -1v1q-1 0 -1 1l16 4v2h-3q-15 -4 -17 -4h-2v1q3 0 36 9q-15 -14 -32 -21h-2l2 3h-2q-1 -3 -1 -4l-3 1q-3 -4 -28 -8v-1l-3 1h-1
l-3 -1q0 1 -1 1v-1q1 0 1 -1h-1l-3 1q-3 -2 -11 -2v-2l15 -1h67l6 -1q-6 -11 -121 -15q-38 0 -65 -11v-2l9 -1v-1h-2q-13 2 -20 2v3l1 3h-2v1q8 7 38 12v1h-7v2q0 2 4 4h3q2 0 2 -2v-2l-1 -2h1q20 0 20 5v1h4v-1l-2 -3h3q20 0 88 2q3 1 4 1v1h-34l-36 4v-1l-3 1h-4l2 -2v-2
h-2q-17 6 -24 6h-3v-2h5v-1q-5 0 -5 -3v-1h-9v4h-17v-1h3v-2h-2l-19 3h-1v-1h5v-2h-8l-1 3h2v1l-7 2v1h1q4 -1 5 -1h1v1h-4v1l10 1v2h-2q-2 0 -9 -3v1q-5 -1 -5 -2q-3 1 -4 1v4h5q2 0 2 -1l26 6v2h-3v1q0 2 3 2h1q2 0 2 -2q8 2 8 4h-4v4q0 2 4 2v2h-1q-3 -2 -4 -2l-3 2
q-6 -3 -10 -3v-1q1 0 8 -2v-1q-4 0 -9 -4q0 2 -4 4l-4 -3l-3 2q-12 -3 -15 -3q-3 1 -4 1q-4 -2 -8 -2h-1l-2 6v2q32 14 32 22q4 0 9 4q12 10 47 23q24 4 33 9l3 -1q46 14 60 30h2v1h-2q-18 -14 -33 -14l2 -3h-2l-5 1h-1v-1h2v-1h-2q-1 0 -8 1h-1v-1h4v-1h-2q-7 1 -10 1
q-1 0 -9 -3l1 -2h-1l-7 1q-8 0 -8 -4h-1l-2 1q0 -3 -19 -6q0 -1 -2 -1q0 -3 2 -3q-1 -3 -1 -4h-4l-2 1q0 -4 -17 -10v6q-3 -1 -4 -1q0 -2 2 -2q-2 -6 -5 -7q-1 2 -1 5h-1q0 -10 -10 -10q0 -2 -5 -4q0 3 -2 3q0 -4 4 -4v-2q-3 0 -10 -2q0 2 -3 4q0 -1 -3 -4l3 1q2 -1 3 -1
q0 -2 -5 -5h-1l1 2q-1 0 -1 1q-4 -1 -10 -7q1 0 1 -2l-13 -7h-4q0 -2 -4 -4l-3 4q3 1 6 1v1h-8v-1h2v-1h-2q0 -4 5 -4v-2h-10v-1h11l-1 -3l-3 2h-1q-5 0 -10 -3q-3 1 -4 1h-3v-1l7 -1v-1l-20 -4v-2h13l3 2v-2q1 2 15 3v-1q-1 -3 -1 -4q-3 0 -5 1q-16 -1 -18 -4q0 1 -2 1v-1
q3 -1 4 -1q0 -1 -1 -1l1 -3v-1h-2v4q-7 0 -25 -2q-3 0 -14 2q-8 -2 -18 -2l1 3l-3 -1h-13v-2h9v-1h-9v-1h3l-1 -3q2 0 5 -5v-1q-20 18 -20 35q0 7 3 14h-4v1q9 0 9 7q-9 -3 -29 -5q0 3 25 5v1h-4l-23 -4q-3 1 -4 1l-1 -2q1 0 1 -1h-1l-9 1l-7 -1v-2h5q2 0 2 2q4 -3 22 -4
q0 4 1 4l12 1h2v-1q-7 -2 -10 -2l1 -2v-2h-13l-2 2v-2q1 0 1 -1h-1q-2 0 -2 1l-2 -1h-4l-3 1l-1 -2h2q8 0 19 1h5v-1h-11v-4q5 -1 6 -1v-3h-16v1h10v2q-6 3 -9 3h-10l1 -2h-2q0 4 -3 4h-4v-2l3 -3q-1 -3 -3 -3t-6 6q1 0 1 2h-7v1h17v3h4q2 0 2 -2q2 2 3 2v1h-14v3
q-7 0 -26 -2h-9v2h13v1h-17l4 -5v-2h-2q-5 4 -11 4v2h7v1h-6v1h12v1h-13q0 -2 -5 -5h-1l-4 3h-2l2 -3l-4 -2v2h-8q-8 0 -17 -1h-2v1h6v2h-6v1h16q-1 4 -2 4h-9v-2h9v-1h-16q0 -6 -2 -6q-5 -2 -11 -2v-1q5 0 5 -1l3 1h8v-1h-5v-2h5q0 2 4 4h1q4 -5 7 -5q0 -2 -10 -5h-1v1h3v2
h-5l-8 -2q-4 3 -15 4v-2h10v-2h-7v-1h3v-1q-7 0 -7 -6h4v-1l-12 -10l-1 2q6 0 7 19v5l-3 -2h-1v2l2 4q-2 8 -15 23v1h1q2 0 8 -7q27 1 37 2q2 0 2 -1l6 1q146 -2 146 -12l2 -3v-6q-5 -3 -11 -13l-3 -1l-1 7h-2q0 -5 -2 -12h1q9 3 30 26h4q1 0 4 -1q6 2 21 3q6 0 45 -6h7
q7 0 62 40q31 17 100 25q19 6 44 25v-2q-1 -12 -23 -30q-37 -20 -53 -20q-27 -11 -39 -19q-11 -4 -15 -11q-2 1 -5 1v3l3 -2v2l-3 1h-1v-3q0 -2 5 -2v-2q-11 -2 -12 -6h-1q0 4 -3 4h-1l1 -3v-1h-2v3h-1v-3l2 -1q3 1 4 1l-10 -7h-2l-2 2v-3q60 17 114 30l55 25q70 46 70 96v4
q0 50 -36 65q-20 10 -64 10h-52q-4 0 -43 -9h-4q-2 -8 -8 -8h-1v2q4 0 4 7h1v-2h3v6l4 -2h2q8 0 24 5v1h-6q-4 0 -24 -1v-3h-2v3h-13l-2 1q0 -2 -1 -2q-12 2 -17 2h-3q-3 0 -3 -2l-2 1q-4 -3 -26 -5l-12 1l-39 -4v-1h3v-1h-3l-9 1h-3v-1l12 -2v-1h-5l-14 3h-2v-2
q12 -1 12 -4q-10 2 -21 4h-1v-1q10 -3 16 -3v-1h-11v-1q13 0 30 -2v-1h-14v-1q14 0 14 -3h-3v-1h17q7 0 7 5h1v-5q3 0 3 5h1v-5h9v-1h-2v-2l6 -1q16 0 16 8l4 -3v3q5 -5 10 -5q12 2 12 7l2 -1q0 1 2 1q-2 5 -2 6v2h2q1 -7 1 -8l18 4h4v-1q-13 0 -38 -13q-6 3 -13 3
q-6 -4 -13 -4h-5q-15 4 -52 5q-7 4 -32 4h-10q-4 0 -9 4q0 8 26 18q3 -1 4 -1v-2h-2v-1q4 0 9 -1h1v1q-9 4 -10 4v1q31 16 40 16l6 1h2v-1q-22 -4 -22 -8l-3 1q-4 -4 -8 -4v-1h4v-1h-5q0 1 -1 1v-1q1 0 1 -1q-1 0 -10 -2v-1q2 0 10 -4h3v1h-4v2h2l5 -2q9 2 16 4v-1
q62 13 104 13h5v-1q-43 0 -136 -19h-4v-1q5 0 10 -1l98 14q1 0 1 -1q6 1 30 2q4 0 9 -1l114 4h4v-1h-10v-2h5q9 2 14 2h4v-2l-13 -1v-1h3q9 1 14 1q20 0 44 -17q11 -10 11 -11l-1 -3l2 -1q0 1 1 1v-1l-1 -3h1q0 1 2 1v-1l-2 -3h2q0 2 1 2v-2l-1 -2h1q0 1 1 1v-1l-1 -3h1
q0 2 2 2v-2l-2 -2h2q0 1 1 1q0 -4 1 -4l-1 -3q5 -21 5 -28zM1073 758q-2 0 -5 6v1q5 -2 5 -7zM1071 650v-2q-1 -2 -3 -2v1q0 3 3 3zM1067 768v-1q-2 0 -4 4h1q3 -1 3 -3zM1067 358v-1q-16 20 -43 39h1q21 -9 42 -38zM1065 642v-1q-1 -6 -6 -8v1q5 8 6 8zM1059 774h-1
q-2 0 -4 4h1q2 0 4 -4zM1054 778h-2q-11 9 -53 16q0 1 -1 1h-16q-1 0 -1 -1q-4 3 -8 3h-4q-26 0 -74 -6l-2 2l-8 -2h-11v2q32 2 48 5v1q-7 0 -70 9v2h7q77 -13 145 -13q50 -12 50 -19zM1033 196q0 -3 -3 -3h-1q0 3 3 3h1zM1026 191q0 -3 -2 -3h-1q0 3 2 3h1zM1024 396h-1
q-6 2 -6 4h2q5 -2 5 -4zM1023 188q-1 -2 -3 -2h-1q0 2 2 2h2zM1019 186q-1 -3 -3 -3h-1q0 3 2 3h2zM1013 572q-3 0 -9 2q-1 0 -1 -1l-6 1h-4l-3 -1q0 3 -3 3h-40v-2h7v-1q-6 0 -17 -1l-5 1h-2v-1h4v-2h-4l-5 2h-1v-2h4v-1h-6l-2 1h-1v-1h2v-1h-4q-2 1 -4 1l2 -3h-2
q-3 0 -5 2h-1v-2h2v-1h-3l-3 1q-2 -1 -7 -1v-1q4 0 4 -3l-2 -1h-4l1 3l-2 1q-5 -1 -8 -8q-3 -1 -4 -1q-1 2 -3 2h-2q-2 0 -2 -1l-2 1h-3v-1q5 0 5 -3v-2h-5v2h-1l-9 -1v-1h2v-1q-7 0 -7 -8h1q28 11 47 15v-1q24 7 111 14v2zM1008 356v-1q-80 5 -109 15q-9 0 -95 56
q-15 8 -34 8q-8 0 -39 -5q-20 4 -23 4v-6q-5 3 -20 24h-1q-2 -1 -2 -3q0 -7 6 -17q-10 -13 -18 -13q-43 -4 -87 -4h-13q-14 0 -68 4q-36 -24 -41 -24q35 21 37 29q3 0 3 10t-12 22v1h2q1 0 10 -8h1l5 4h2q0 -3 2 -3v-1q-3 0 -10 -1v-1h12v-2h-3v-1q6 -3 7 -3v-1h-6v-1h8v2h5
v-1h-2q0 -1 2 -4v-4h-5l-6 -1v-1q15 2 23 2h14v-1h-18l-1 -3l6 2h26q0 -1 2 -6q-2 0 -2 -1h3q2 1 4 1v2h-3v1q3 0 7 3l2 -4q-2 -1 -2 -3h1v1q3 -1 4 -1v-1h-14q-5 0 -22 4v1h13v1h-6q-15 -1 -28 -1l1 -3q1 0 10 2h10v-2h-11v-1h9l3 1q2 -1 6 -1v-1q-6 0 -15 -1v-2l21 2
q16 0 61 -2h3v2h-7q0 2 2 2h4l7 -1q-1 2 -3 2h-13l1 -2v-1h-1q-11 1 -14 1v1h9v1h-7v2h29v1h-38v3h3v1q-4 0 -4 3q8 -1 12 -6h14v2h-13v1h13v1h-5v2h9v1h-4v1h5q0 -2 3 -2h5q4 0 8 2l2 -5q-1 0 -1 -1h17v-2h-16l-11 2v1h5v1q-7 0 -7 -1l-1 -3q13 -1 21 -1v-1h-13l1 -3
q-1 0 -1 -1q2 -1 4 -1h8v1h-8q0 2 2 2q10 -2 11 -2q4 1 5 1l9 -1h4v1h-7v1h11q3 -2 4 -2h2v1q-7 11 -7 24v1q0 16 13 31v-3h6l5 4h3q3 0 5 -1q2 1 5 1v-2h-4l-9 1v-3h12l8 -1q5 3 14 3h8v-2h-8v-1q10 -5 10 -9h16l8 1l5 -2q9 2 12 2h13v4h-3v2h4v1h-23v1h5l-1 3q1 0 13 1
q0 1 -2 1q2 3 2 4h7v-1q-4 0 -4 -4h3v-1q-5 0 -12 -2v-1h20l6 -1v-1h-2q-3 1 -4 1q0 -1 -1 -1q0 -4 5 -4v-2h-7v-1h3v-1l-13 -2v-1h5v-1h-9v-1q9 0 9 -2q0 -1 1 -1l3 1q5 -2 8 -2v-2q-3 0 -3 -2q-3 0 -5 1q-11 -1 -18 -1q-3 0 -5 1q-3 -1 -7 -1v-2h14q6 0 15 2q11 -3 19 -7
v-1h-2q-3 1 -4 1l1 -2h-1q-5 2 -8 2v2h4v1q-4 0 -4 1l-3 -1h-2l-7 1q0 -4 -13 -4v-1h3l9 1h4v-1h-5v-1q4 0 6 -2v3l7 -1q0 -3 -4 -3v-3q10 2 10 4q13 -4 13 -11q-1 0 -1 -2q1 0 1 -1h-1q-3 0 -3 3q1 0 1 1l-5 3q-1 -3 -1 -4l-3 1v-1q2 0 2 -2l2 2h2l-2 -3q4 0 4 -4h3l-2 3h2
q1 0 1 -2q4 2 4 3q5 -2 5 -4v-2h-1l-3 1v-1q0 -3 3 -3l1 3q4 -1 11 -10q-2 0 -2 -1l3 1h2q3 0 3 -2q-5 0 -5 -3l2 2h4l-1 -3q1 0 1 1l15 -4v-2l-7 1q3 -4 14 -8v2q4 0 8 -8q4 0 4 -3h4v1l-6 3q0 3 2 3q5 -6 13 -7l-1 -2v-2q5 0 5 -4l4 3h1l-1 -3v-1q4 0 4 -1l2 1h2
q0 -2 4 -5q4 1 5 1q8 -1 8 -2l2 1q38 -7 56 -8h3v1q-32 6 -47 11v2q4 2 5 2l-1 -3h1q0 1 1 1q0 -1 19 -6v-1q2 1 4 1q37 -9 37 -13zM1007 407v-2q-3 0 -3 -1q-5 3 -7 3l1 2l-3 -1h-1q0 2 4 2q6 -3 9 -3zM1006 390q-2 0 -4 1v-3h4v2zM999 520h-5v-2h5v2zM999 444q-28 6 -28 8
l-3 -1q-3 0 -5 1l-3 -1q-4 1 -4 2q-4 -2 -6 -2q-1 2 -3 2l-6 -1l-2 3l-2 -2h-2q-2 0 -5 2q-2 -2 -5 -2q-1 0 -4 2q-2 -2 -4 -2h-2v2q5 0 5 2h-5v-2q-2 0 -2 1l-2 -1h-7q-1 0 -1 1q-3 -1 -4 -1t-8 1q-2 -1 -5 -1q0 2 -6 4h-2v-2h3v-1h-4q-3 0 -3 3l-2 -2l-9 3v-7l6 2h3l4 -3
h6v-3h5q2 0 2 2q6 -3 9 -3v1q2 -1 4 -1q4 0 6 1q7 -1 12 -1l8 1q12 -2 15 -2v1l3 -1h8q15 0 44 -4h1v1zM987 401q-2 -1 -5 -1v-1h4zM984 641q-2 0 -4 -4q2 1 4 1v3zM981 397l-3 2h-1v-2q1 0 4 -1v1zM980 546v-2h-8v2h8zM973 787h-27v-1h27v1zM972 544v-1q-5 0 -22 -3h-5v2
q5 0 23 2h4zM969 173v-2h-9v2h9zM959 410l-5 2q0 -3 4 -3h1v1zM956 416h-1q-3 -2 -4 -2v-2q3 2 5 2v2zM954 456h-2q-2 0 -2 -3h1q0 2 1 2q0 -2 2 -2v3zM948 611h-3l-2 -3h2q2 1 3 1v2zM945 540v-1h-10v1h10zM942 574h-5v-1h5v1zM941 426h-4q0 -3 2 -3zM941 377v-3h-3
q-19 7 -22 7l1 2q-1 0 -1 1h3v-2h1v2q5 -2 5 -5l3 2q0 -2 1 -2v3h1v-4l9 1zM938 420l-3 1h-1v-1q0 -3 3 -3zM937 457h-4v-2h1q3 0 3 2zM930 429q-3 0 -6 2h-3v-4h9v2zM929 423l-3 2v-2q2 0 2 -1q-2 0 -2 -1h2zM928 457l-3 2l-1 -3v-1h1v2h1v-2h2v2zM926 525h-1q-3 -1 -3 -3
h2q2 0 2 3zM921 556h-5v-1h5v1zM919 430h-2l-2 -1v2h-2v-2l3 -2h3v3zM917 387q0 -1 -2 -4q1 0 1 -1h-1q-24 9 -24 13q7 1 8 1q0 -1 1 -1l-1 -3v-1h1v3h2v-4q4 1 5 1h2v-1h-3v-2h3l-1 -2h1l2 2q-2 0 -2 2h3q0 -4 1 -4q3 1 4 1zM915 426h-4q0 -3 2 -3h2v3zM912 553h-1
q0 -1 -2 -3h2l1 2v1zM911 469h-9v-1h9v1zM908 459h-1q-3 -1 -3 -3l3 1q2 -1 4 -1q-1 3 -3 3zM900 552h-2q-3 0 -3 -2h3q2 0 2 2zM895 171l-5 3h-1v-1q2 0 6 -3v1zM889 171h-2q-2 0 -2 -2v-2l6 -1v3q0 2 -2 2zM890 170v-3h-1q-3 0 -3 3h4zM887 599l-2 -1h-4v4h4q2 -1 2 -3z
M887 427q-1 0 -4 -1l-1 3v1h3q2 0 2 -3zM881 171q-2 -1 -5 -1v-1q0 -2 4 -4l-2 2v2h4zM880 543h-2q-2 0 -2 -3h1q3 0 3 3zM877 585h-3l-1 -3q3 1 4 1v2zM877 448q-2 0 -8 5h-1v-1q5 0 5 -8h4v4zM878 396v-2q-2 1 -4 1v1h4zM877 173h-5l1 -3q3 1 4 1v2zM869 187h-5
q-3 0 -3 -3h3v-1h-3v-1q0 -3 3 -3q0 3 3 3h1l-1 -3h2q2 0 4 4q0 2 -4 4zM870 171q-2 -1 -5 -1v-4q0 -2 3 -2l-1 2v3h2q3 -1 3 -3l-2 -2h2l1 2v1zM870 600h-1q-13 -6 -13 -8h4q0 4 10 7v1zM867 543l-2 -3h4q0 3 -2 3zM868 469h-5l1 -3q2 2 4 2v1zM867 524h-19v-2h19v2z
M868 405v-1q-1 -3 -3 -3h-2v4q0 3 2 3q3 -1 3 -3zM865 576l-2 1q-3 -1 -3 -3v-1h3q2 0 2 3zM852 171l-2 -4v-2q0 -2 4 -4q6 0 7 4q-1 6 -9 6zM857 461v-4h3v2q0 2 -3 2zM859 538h-5v-3h1q2 2 4 2v1zM859 473q-3 -1 -3 -3v-1q3 0 3 3v1zM859 412v-2q-1 -2 -3 -2h-1q0 2 4 4z
M859 165l-2 -3q-5 2 -5 4v3h3q2 0 4 -4zM857 433h-1q-2 1 -4 1v2h2q1 0 3 -3zM854 568l-3 1h-1v-1h2l-1 -3h1zM854 447l-3 -1h-1v3h1q3 0 3 -2zM852 413q-1 -2 -1 -4q-6 4 -7 5l3 4q5 -1 5 -5zM843 192h-2q-2 0 -6 -5q0 -3 4 -3q0 -1 -1 -1l3 -5h-2q2 -3 2 -4q7 0 10 5
q0 7 -8 13zM847 534q-2 -1 -4 -1v-3q3 1 4 1v3zM847 530q-2 -1 -4 -1v-2h4v3zM847 478h-5v-1h5v1zM844 167h-5q0 -2 -1 -2q1 -3 1 -4h4q2 0 4 4q0 2 -3 2zM846 806v-2h-4q-12 4 -13 4v2h1l9 -3q3 1 5 1l-1 -2h3zM846 446l-4 -3l-1 3v1q0 2 2 2zM846 164l-3 -2h-1q-3 0 -3 3
l3 1h1q3 0 3 -2zM844 420v-3h-6v1q0 2 4 4q2 0 2 -2zM843 781q0 -3 -2 -3l-2 3h4zM843 429l-2 -2h-3v2q0 2 3 2q2 0 2 -2zM841 525q-3 0 -7 4q-2 -2 -4 -2v-1q6 0 9 -2h2v1zM839 559l-2 1v-1q1 0 1 -2h-1l-3 2v-2l3 -1q2 0 2 3zM839 522h-6v-1h6v1zM839 514q-2 -5 -5 -6
q-4 0 -4 6h-8v2q9 0 16 1zM838 427v-4l-7 2q0 2 3 2h4zM837 452v-4h-3v1q0 3 3 3zM835 165q-5 -3 -9 -3q-4 4 -4 12q-4 -1 -4 -8q2 -6 11 -6q4 2 6 2v3zM835 459q0 -3 -2 -3h-3v1l1 3q3 -1 4 -1zM831 522l-2 2h-5v-2q6 0 7 -1v1zM830 564q-3 -3 -6 -3v-1h2q3 1 4 1v3z
M831 535l-2 -1h-1q-3 0 -3 3l3 1h1q2 -1 2 -3zM831 433q0 -3 -2 -3h-1v3h3zM828 203l1 -3v-1l-1 -3h1l1 3v1q0 3 -2 3zM828 438v-4h-2q-2 0 -4 4v1h2q2 -1 4 -1zM825 481v-2h-5v2h5zM825 456h-4q0 3 3 3zM824 512v-1q-1 -3 -3 -3h-1q-3 0 -3 3v1h7zM822 540v-2h-4q0 2 3 2h1
zM820 186q-6 6 -13 7q-11 -3 -11 -6v-4q0 -3 3 -3h3l-2 3v1l3 -1q0 3 2 3v-2l-1 -2h1q0 2 3 2h1l-1 -2h1q0 1 2 1q0 -1 1 -1l-1 -3v-1q9 6 9 8zM818 453v-4l-7 2v1q6 1 7 1zM817 473h-2q-3 0 -3 2v2h1q2 0 4 -4zM816 539q-2 -5 -4 -5q0 3 -5 3v1zM816 516v-2h-7q0 3 3 3
q2 -1 4 -1zM816 495q0 -2 -4 -4h-3v1q0 3 3 3h4zM816 460v-1q-3 0 -3 -2l-9 3l-1 -3l-8 2v1q4 0 4 2l6 -1l10 1zM815 507v-3h-2l-2 1q1 3 1 4q3 0 3 -2zM812 559q0 -2 -4 -4h-3q-2 0 -2 2l6 4q3 0 3 -2zM811 164h-6v-6h3l-1 3v1h4v2zM811 810v-2l-28 -5h-2v1q4 0 27 6h3z
M811 481q0 -2 -6 -6q0 4 -3 4v2h9zM809 522q-4 -9 -6 -9h-5q0 3 -4 3v1q4 0 4 3h-3v1q10 0 10 5v1h2q0 -5 2 -5zM808 491v-3h-3q-2 0 -2 3h5zM804 487v-2q-1 0 -4 1l-5 -1h-1v1q6 1 6 4q-1 0 -1 1l3 1q0 -2 2 -5zM803 511q-3 -4 -3 -6h-1q-3 0 -3 3v1zM800 170h-1v-1
q1 -3 1 -5l-2 -2q-7 0 -8 4v3l1 2h-1q-3 0 -3 -2v-5q9 -4 12 -4l3 4zM802 529l-3 -2h-4v3l1 3q6 -2 6 -4zM800 478l-2 -1h-2v4h2q2 -1 2 -3zM798 499v-3q-1 -2 -3 -2q-3 0 -3 2q0 3 3 3h3zM796 179h-1l-1 -2v-3h1q0 3 1 5zM794 525v-3h-2q-2 0 -2 3h4zM794 507l-3 -2h-1
q-3 0 -3 3l3 1h1q3 0 3 -2zM792 516v-2h-1q-2 0 -4 4h3q2 0 2 -2zM792 469v-1h-23v1h23zM791 537l-4 -6q-6 6 -15 6v1q6 0 18 4q0 -2 -1 -2q1 -3 2 -3zM789 453h-10v-1h10v1zM781 196h-3v-1h3v-2h-5v-1h3v-1q-6 0 -6 -3v-1q5 0 12 -5l4 6v4q-2 4 -8 4zM787 526q0 -2 -2 -2
q-3 0 -3 2v3h3q2 -1 2 -3zM787 494v-2q0 -2 -2 -2h-3v1q0 3 3 3h2zM786 442h-5v-2h5v2zM786 514l-3 -1h-4v1q0 2 4 4zM786 508v-7q-1 0 -8 -1l-1 3v1l4 -3q0 7 5 7zM783 465h-1q-3 0 -3 -3h2q2 0 2 3zM783 456h-43v-1h43v1zM783 448h-4v-2h2q2 0 2 2zM781 803v-1h-5v1h5z
M779 461h-6v-1h6v1zM776 171h-6v-1q6 0 9 -4v1q0 2 -3 4zM778 459q-12 0 -12 3q-2 -1 -3 -1h-4v1h5v2h-22v-2h5v-1h-8v-1h26v-1h-22v-2h35v2zM778 522v-2h-1q-3 0 -3 2h4zM774 548h-1q-3 -1 -4 -1v-1h5v2zM776 513v-2h-6q0 2 3 2h3zM774 517h-4v3h2q2 -1 2 -3zM773 206h-5
v-1h5v1zM773 199h-4v-2q3 0 3 -4h1v6zM773 535v-1h-8v1h8zM772 487v-4q-2 0 -4 -1v3q0 2 2 2h2zM769 448h-9l1 -2q2 1 8 1v1zM768 546h-7v1h3v1q-10 -2 -20 -2v-2h9l7 2l1 -3h-6v-1h10q0 2 3 2v2zM768 527q-1 -2 -3 -2t-2 2h5zM768 522v-2h-5v2h5zM768 472v-2h-5l-2 3h2
q2 -1 5 -1zM766 507v-2q0 -2 -2 -2l-1 2l2 2h1zM761 180h-1v-2h4q-1 2 -3 2zM763 485l-3 -2l-1 3v1h1q3 0 3 -2zM761 193h-2v-5h2l-1 3zM761 170h-1q-3 0 -3 -3q0 -2 3 -2v1q-1 0 -1 1q2 0 2 3zM761 785v-1h-5v1h5zM760 538h-10v-1h10v1zM760 442h-8v-2h8v2zM760 196h-1
q-3 -1 -4 -1v-2h1q3 2 4 2v1zM757 512q0 -3 -2 -3h-2v3h4zM757 507v-3h-4v3h4zM757 483v-1q0 -3 -2 -3l-2 3l3 1h1zM755 453h-20v-1h20v1zM755 451h-11l-5 -2q-2 2 -14 3q-11 0 -17 -12q1 -2 1 -4h3q0 11 5 11h5l5 -5q1 0 7 5q10 0 10 -11q-1 -2 -1 -3q2 0 4 3v7l-5 6h13v2z
M755 448h-9v-1h9v1zM755 784v-2h-5v2h5zM755 517v-1l-12 -2q0 3 3 3h9zM755 468v-2h-8v2h8zM752 170h-2v-4h1q0 1 1 4zM751 529h-5v-2h5v2zM744 564h-2q4 -5 4 -9q-2 -5 -8 -5q-3 0 -9 5q-7 -9 -12 -9q-8 2 -8 10q2 3 2 4q-3 0 -3 -3v-4q0 -11 16 -11q26 0 26 15q-3 6 -6 7z
M750 782v-1h-6v1h6zM750 522v-1h-7v1h7zM747 520v-2q-16 0 -25 -2h-1v1h3v1h-17v2q4 1 5 1q24 -1 35 -1zM746 508l-3 -1q-2 1 -4 1q0 3 3 3h1q3 -1 3 -3zM743 539h-5v-1h5v1zM743 190h-3l2 -3v-1h-4v-2h4l1 3v3zM739 761h-6v-1h6v1zM739 173l-5 1q0 -3 4 -3h1v2zM733 182h-2
v-4h3q-1 2 -1 4zM730 473h-5v-1h2v-2q-15 0 -26 -11h-2l1 -3v-1h-2q1 -3 1 -4h4q1 7 13 10q0 4 5 7l3 -2q5 2 9 2q-3 3 -3 5zM733 173h-2v-4h-4v2h-1v-2l3 -2h1q3 0 3 3v3zM733 782v-2q-3 1 -4 1v1h4zM730 772q-3 0 -10 1q-11 -2 -16 -2l1 -3q7 1 15 1l-2 3l7 -1h5v1z
M730 178l-3 1h-1v-1q2 0 4 -1v1zM729 485v-2h-5v2h5zM726 530q-26 7 -26 21q0 2 3 8h-2l-3 -9q0 -13 27 -23zM725 765q-3 0 -11 2h-1v-2q1 0 8 -1h4v1zM704 767h-1v-2q17 -5 19 -5q0 2 -18 7zM717 486v-3h-4v3h4zM713 514v-1h-19v1h19zM707 516h-7l-6 1v1h10q3 0 3 -2z
M699 448v-2q0 -7 6 -12q-4 14 -6 14zM703 474h-15v-1h15v1zM703 521v-1h-11q0 2 3 2zM701 494q0 -3 -2 -3h-1q0 3 2 3h1zM700 466h-1q-4 -2 -8 -2v-2q3 0 5 -1zM700 501h-1q-2 0 -4 4h1q2 0 4 -4zM694 457h-2q-2 -1 -4 -1v-1h4zM688 434l-2 1q0 -1 -1 -1v1l1 3h-1
q0 -2 -2 -2q0 2 -1 2l1 -3v-1l-2 1v-1l2 -1q0 1 2 1q0 -1 1 -1q0 1 1 1q0 -1 1 -1v1zM687 431h-1q0 -1 -1 -1q0 1 -2 1v-1q2 0 2 -1h-3q0 4 -3 4q0 -2 -1 -2q0 4 -3 4q2 -5 4 -5q0 1 2 1v-1q0 -1 -2 -1q2 -6 4 -6q0 3 4 8zM686 495v-1h-4v1q0 3 3 3zM682 509l-3 -1q0 1 -1 4
h1q3 -1 3 -3zM677 525v-1q-1 -3 -3 -3h-1v1q0 3 2 3h2zM674 478l-2 -1h-2v4h2q2 -1 2 -3zM674 472v-2q0 -2 -2 -2l-2 2v2h4zM673 513v-2q-1 0 -4 -2v2q0 2 3 2h1zM672 504v-1q-1 -3 -3 -3l-1 3l2 1h2zM669 560v-1h-5v1h5zM669 534v-4q0 -3 -3 -3q-1 0 -4 4q2 6 4 6
q3 -1 3 -3zM669 487v-1q0 -3 -3 -3v4h3zM669 430v-1h-5l1 -3l-4 -3h-5l1 3q-1 0 -1 1h5v2l-9 1h-10l1 3q-1 0 -1 1l6 1q3 0 3 -2q-2 0 -2 -2h3l9 2h3v-2h-5v-1h10zM668 546h-7v1l5 1zM668 518h-3q-3 0 -3 3h3q3 0 3 -3zM668 466v-4q-3 0 -3 3zM666 496v-5h-9v1h8v2l-1 2h2z
M664 513q-1 -2 -3 -2l-1 2h4zM664 498v-2l-9 -4h-2v2h3l-1 2h5v2h-5v1h5q2 -1 4 -1zM661 570h-2q-8 -1 -11 -1l-12 1h-3v-1q2 0 18 -1q7 1 10 1v1zM661 435v-1h-6v1h6zM659 539v-1q-1 -3 -3 -3l-1 3v1h4zM659 464v-5q-3 1 -4 1v4h4zM657 531v-1h-6v-1h4v-2q-1 -2 -3 -2h-3
l-2 1q0 -1 -1 -1v1q0 3 2 3q0 -2 1 -2v2q-1 0 -1 1q3 1 4 1h5zM657 485v-2h-2q-3 0 -3 3v1h3q2 0 2 -2zM657 473v-4q-2 -1 -4 -1l-6 1v1h4q2 -1 4 -1q1 2 1 4h1zM657 446v-3h-5q2 5 4 5zM653 475l-1 -2q1 0 1 -1h-5q1 2 1 3h4zM653 462v-1q0 -2 -4 -4h-1v2q0 2 5 3zM651 509
v-1q0 -2 -7 -7h-1q-2 0 -4 4v2q0 2 5 5q5 -3 7 -3zM648 538q-2 -5 -8 -5h-2v1h4l-3 5l3 1h4q2 0 2 -2zM647 475v-5h-1l-2 5h3zM647 447v-1l-1 -3q1 0 1 -1h-9v1q5 0 5 3v1h4zM640 522v-4h-1q-3 0 -3 3q2 0 4 1zM640 468h-4q-1 0 -3 4v1q0 2 5 5q2 -7 2 -10zM639 482v-1h-3
q-2 0 -2 2l2 2q3 -1 3 -3zM636 566h-6l1 3h-1l-3 -4h9v1zM638 494v-3h-2q-2 0 -2 3q0 2 2 2zM636 538v-1q0 -3 -2 -3h-3v3l2 2q2 -1 3 -1zM636 512q0 -1 -1 -1l1 -3v-1q0 -2 -5 -4q-2 0 -5 5q2 5 4 5zM636 449v-5q-2 2 -5 2v3h5zM631 547v-1h-5v1h5zM631 540v-1h-5v1h5z
M631 461q-4 -2 -6 -2l-4 5v4l6 1q4 -5 4 -8zM629 490h-4v2h1q3 0 3 -2zM627 443v-1q-1 -3 -1 -4q-1 0 -1 1q-3 -1 -4 -1q-8 2 -11 2v2l7 2h8v-1h-8v-1q6 0 8 -2q0 3 2 3zM626 531v-2q0 -3 -3 -3q-2 0 -2 3l4 2h1zM626 475v-3h-3v1q0 2 3 2zM625 538v-1h-7v1h7zM625 478
q-7 2 -7 4h2l-2 3v1h2q5 -3 5 -8zM622 572h-13v-2h13v2zM623 535l-2 -4q1 0 1 -1h-2q0 3 -3 3q0 2 3 2h3zM622 495v-1h-5v1q0 3 3 3q2 -1 2 -3zM620 513v-1h-7q-2 1 -4 1v1h3l-2 3v1l6 2h1v-2h-3l2 -2v-2h-3v-1h7zM620 488v-1q-4 0 -4 -2h-2v3h6zM618 561v-1h-9v1h9z
M618 511v-4h-4v1q0 3 3 3h1zM617 547v-1q-15 0 -18 -3v1q0 3 4 3h14zM617 462v-2h-8q0 1 4 4q3 -2 4 -2zM613 568h-13q-1 0 -1 -2l-3 2h-4v-2l5 -1l16 1v2zM614 552v-1q0 -3 -2 -3h-4v2l2 3q3 -1 4 -1zM614 500q0 -2 -2 -2h-7v1l2 2q-2 0 -2 2q2 0 4 1q5 -2 5 -4zM613 530
v-3h-5q0 3 2 3h3zM613 451v-2q0 -2 -3 -2h-1q-2 0 -2 2v2h6zM612 417h-52v-1h52v1zM612 434l-4 -3q-3 3 -9 3v1q9 1 11 1zM609 478v-3h-4q0 3 3 3h1zM608 465v-4q-1 0 -5 -1q-6 2 -6 4l7 -2h3v3h1zM604 570h-12v-1h12v1zM605 556v-1q0 -3 -2 -3h-6v4h8zM605 486q0 -3 -2 -3
h-2l-9 2v3h2v-2h3q0 2 -3 2v2l6 1q3 -1 4 -1q0 -4 -5 -4v-1h2q3 1 4 1zM604 534q0 -2 -4 -4l-9 1l1 3h-1q1 2 1 4h4q8 -1 8 -4zM604 469q0 -1 -1 -1l1 -3v-1h-1q-2 0 -4 4zM600 446v-3h-6v1h3q0 3 -5 3v1h5q3 0 3 -2zM597 499v-3h-1q-2 0 -2 3h3zM596 469v-4q-2 0 -2 3z
M596 455v-2q0 -2 -2 -2h-3q1 2 1 4h4zM594 573h-12v-1q4 0 4 -2q2 2 8 2v1zM595 516v-2h-5l1 3q3 -1 4 -1zM595 439q-5 -3 -13 -4l-1 3q5 5 10 5h3q0 -1 1 -4zM588 569q-19 0 -19 1q0 3 -4 3h-6v-1q7 0 7 -2t2 -2h20v1zM590 496v-2h-4q-2 0 -4 4l6 1zM590 482q-1 -3 -3 -3
q-5 2 -5 4v2h5q3 -1 3 -3zM590 430q-2 -5 -8 -5l3 4v1h-4v1h6zM588 461l-2 -1h-3v4h3q2 -1 2 -3zM586 514q0 -1 -4 -3h-1q-7 0 -7 2q1 3 1 4h8q3 0 3 -3zM583 531h-9v2q6 0 8 1zM582 479v-2h-5q-2 0 -5 5v1q1 0 3 2q6 -3 7 -6zM582 447l-5 -4q-2 0 -4 4v2l6 2zM581 556v-1
q-4 0 -4 -7h-2q0 5 -3 5v2l6 1h3zM581 473v-5h-6v1q0 2 4 4h2zM578 560v-1h-12v1h12zM578 496q-4 0 -4 -5h-4q-3 3 -5 3v2q0 3 8 5q4 -1 5 -5zM578 457v-1h-9q-3 0 -3 3l4 2h4q2 0 4 -4zM574 548v-1h-6v1h6zM573 509v-1q-2 0 -4 -1q0 1 -1 4l2 1q3 -1 3 -3zM573 436v-1
q-1 -2 -3 -2h-2q0 1 4 3h1zM572 542q0 -2 -8 -4q-3 1 -5 1v1h2l-1 3v1l6 -1h2l2 1zM572 531l-4 -2h-2v6h4q0 -1 2 -4zM569 475v-1q-1 -2 -3 -2v1q0 2 3 2zM568 557v-1q-3 0 -8 -5h-8v1h4l-1 3q2 0 5 2h8zM568 522v-2h-6v2h6zM566 440q0 -6 -20 -7q1 2 1 3h1l3 -1q0 5 15 5z
M565 546q-8 0 -8 -3l2 -3h-3q0 2 -3 6q2 0 11 2zM564 490v-3h-8q0 3 3 3h5zM561 564h-8v-1h8v1zM562 469v-3q-2 2 -3 2v1h3zM561 511v-3h-1q-3 0 -3 3h4zM560 530q0 -2 -4 -4h-1q0 3 -3 3q1 2 1 4h4q3 -1 3 -3zM559 503q-2 -3 -2 -4q-2 0 -2 2v4h1q3 0 3 -2zM559 449v-1h-3
l1 -2q-1 0 -1 -2q-3 2 -4 2v1q3 0 3 2h4zM557 517v-4h-4q-2 0 -2 3zM553 570h-5v-1h5v1zM555 560v-1q0 -2 -6 -8q-5 2 -5 4h3v1h-4v1q7 0 12 3zM555 485q-2 0 -4 -2l-2 3v1h3q3 0 3 -2zM555 479v-1h-4v-1h2q-1 -3 -1 -4h-1v2q-3 -1 -4 -1h-1v1h2v3h-2v-3h-3q0 3 5 6
q2 -2 7 -2zM555 453v-1h-8l1 3q-1 0 -5 2v2l5 1l5 -5q-1 0 -1 -2h3zM552 576h-4q0 -3 3 -3zM549 500l-5 -1q-5 2 -5 4q3 0 3 2q-2 0 -2 2q2 0 4 1q5 0 5 -8zM549 534q0 -3 -2 -3h-3v3h5zM548 542v-2q-8 -2 -10 -2h-2v1q6 0 6 3q-2 0 -2 1h2zM548 491v-1h-9q-3 1 -4 1v1h4
l-1 3h5v1h-5v2h5q2 -2 4 -2v-2l-3 1v-1q2 0 2 -2h-6v-1h8zM547 448v-4l-5 -1l-2 3v1zM546 511l-3 -2h-3q0 2 -1 4l3 1q1 0 4 -3zM543 576h-5q0 -2 -2 -2q2 -2 2 -4h2l-1 3v1h4v2zM542 533v-2h-6v2h6zM542 466v-2q-1 -3 -3 -3h-5q-3 0 -3 4q1 4 5 5q6 -2 6 -4zM542 438v-2
q-1 -2 -3 -2h-3q-6 0 -7 4q2 0 2 2h2zM539 525v-4h-3v4h3zM536 544l-3 -2h-4v5h5q2 0 2 -3zM536 448v-4h-3q-3 0 -3 3zM534 552h-7v-1h7v1zM535 479q-2 -5 -4 -5q-2 1 -4 1q0 2 4 4h4zM535 456v-3h-2q-3 0 -3 3h5zM531 429h-5v-2h5v2zM531 534v-3h-4q-2 0 -2 3l5 3zM530 499
v-3l-5 -1v3l1 2q3 -1 4 -1zM529 508v-1q-1 -3 -3 -3l-1 3v1h4zM525 574h-7v-1q4 0 4 -3h1q0 2 2 4zM526 525v-3q-1 0 -4 -1v4h4zM526 514h-3v-1q3 0 3 -1q-1 -3 -1 -4q-9 0 -9 8l6 1h1q3 0 3 -3zM523 561q-2 0 -2 3h-3q3 -3 3 -5q2 0 2 2zM525 468l-2 -7h-1q-6 4 -6 5l7 4z
M525 448v-4l-7 -1v4q0 2 3 2q2 -1 4 -1zM523 426h-1q-5 -3 -8 -3v-1h4v1l3 -1h2l-1 3q1 0 1 1zM523 546v-3h-1q-2 1 -4 1l2 3q2 -1 3 -1zM521 555h-4v-3h1q3 0 3 3zM522 540v-1q0 -2 -2 -2h-6v1h3l-1 2h6zM521 436h-5q0 -1 4 -3h1v3zM521 485v-3h-1q-3 0 -3 3q0 2 3 2z
M518 569h-5v-1h5v1zM518 544v-1h-5v1h5zM518 477v-2q0 -2 -2 -2h-4l1 6h3q2 0 2 -2zM514 496v-1q0 -3 -2 -3h-2v2q0 2 3 2h1zM513 530v-3h-4v3h4zM510 444h-3v-8h1q0 7 2 7v1zM509 490q0 -2 -4 -4l-1 2l3 2h2zM505 479v-2h-5q0 2 3 2h2zM504 525q0 -3 -4 -3h-1v2q2 0 2 3
q3 0 3 -2zM504 459h-4v2h1q3 0 3 -2zM503 543h-3q-3 0 -3 3l3 1zM503 516v-3h-4v3h4zM501 527h-1l-3 2h-1v-2h3v-3l-7 1q3 3 3 5h4q2 0 2 -3zM501 429v-2q-1 0 -4 -1q-7 1 -11 1h-2v3q-14 -2 -19 -4l-3 7l3 1h5q0 -4 3 -4h2v3l13 -2l8 3q2 -5 5 -5zM500 483v-1h-4l-1 3h1
q3 -2 4 -2zM499 570v-1q-3 0 -3 -1q-1 0 -1 1l-7 -1h-1v2h12zM499 538v-1q0 -2 -4 -4l-1 2q0 3 2 3h3zM499 507h-4v2h1q3 0 3 -2zM499 501v-6l-7 -1h-1q-3 0 -3 2v3q0 1 6 4q2 -2 5 -2zM499 422l-2 -2l-2 1l-3 -1q0 3 -5 3v2h5q0 -3 7 -3zM497 564v-1h-6l1 2q2 -1 5 -1z
M497 555q-1 0 -1 -2q1 0 1 -1h-1q-10 0 -13 7v1h11q0 -2 3 -5zM497 442v-4h-3q1 2 1 4h2zM496 491v-3h-1q-3 0 -3 3h4zM495 477v-2h-4l1 -2l-1 -3q1 0 1 -1h-9v1h4l-3 4q3 1 6 1v2h-4v1h4q2 -1 5 -1zM494 574v-1l-10 -1q-6 1 -7 1h-2v-1h3v-2h-12q0 -2 5 -2v-2h-5q-4 4 -6 4
v2h4l-2 2v2l7 -2v-1h-3v-1h5v2h4q3 0 6 2l6 -3q3 1 4 1h3zM494 550q-2 -3 -2 -4h-2v4h4zM494 444l-8 -2l-17 6v1q13 2 19 2q3 -1 3 -3v-1l-3 1q0 -2 -2 -2h-4q-3 0 -3 2h3v1h-4l-1 -2q4 -3 7 -3h4l4 3zM492 430h-5v-1h5v1zM491 566v-1q-4 0 -4 -1q-2 1 -9 1l1 3q5 -2 12 -2z
M491 514q0 -2 -3 -2l-1 2v3h1q3 0 3 -3zM490 583h-2q-2 0 -7 8h1q2 0 8 -8zM490 543v-4h-7v1q3 0 3 3h4zM490 529v-5h-2q0 1 -1 3zM490 461q-2 -5 -8 -5q-3 0 -3 3v2q0 2 4 4h4q3 0 3 -4zM487 479q-1 0 -4 -1l-1 3l2 1q3 0 3 -3zM487 436v-1h-6q1 3 1 4h2q3 0 3 -3zM486 503
v-4q-1 -3 -3 -3h-1q-3 0 -3 3zM484 518q0 -2 -2 -2h-1q-3 0 -3 2q0 3 3 3h1q2 0 2 -3zM484 423v-2h-1q-2 1 -4 1v3h2q2 -2 3 -2zM483 533h-4v2h2q2 0 2 -2zM483 513v-2h-5q0 2 3 2h2zM483 477v-2q-1 -2 -1 -3q1 0 1 -2h-2v4q0 3 2 3zM482 550v-4l-7 1v1zM479 592h-1
q-3 0 -3 3h2q2 0 2 -3zM479 557h-1l-7 2h-1v-2h3v-4h-2q-3 3 -5 3v1h3q-1 3 -3 3h-14v4h4v-3h6q17 0 17 -4zM477 499l-3 -1h-1v1q0 2 2 2zM477 439v-3h-3q-3 0 -3 3h6zM475 595h-1l-3 1q0 -2 -2 -2h-1v1q1 3 1 4q-1 0 -1 1h1q6 -3 6 -5zM475 507v-2q-1 0 -4 -1v3h4zM475 417
v-3h-4v3h4zM474 539q-1 -2 -1 -4h-3v2q0 2 3 2h1zM474 521v-4q0 -3 -3 -3h-3q-3 0 -3 3q3 0 3 4h6zM471 494q0 -3 -2 -3l-1 3h3zM471 466q-3 -2 -5 -2q-2 1 -4 1v1q0 3 7 4zM470 565v-1q-7 0 -9 -1q-5 2 -5 3h1q7 -1 13 -1zM469 551h-3q-2 1 -4 1v1h4q3 0 3 -2zM469 459v-4
h-5v4h5zM469 417q-1 -3 -3 -3h-2q0 3 2 3h3zM468 542v-4q-3 0 -6 -3l-1 5q3 0 3 3q2 -1 4 -1zM468 533q-2 -3 -2 -4h-4v1h3l-1 3h4zM466 478v-1h-1q-2 0 -4 4h3q2 -1 2 -3zM465 582q0 -3 -3 -3q-2 0 -2 3h5zM465 551v-1h-3q-8 1 -17 1l-9 -1l-2 5q1 2 1 4h4q1 0 6 -7h6l5 4
h1l-1 -3q5 -2 9 -2zM465 443v-1h-7q0 2 4 4q3 -1 3 -3zM464 501v-3h-3q-3 0 -3 2l3 1h3zM462 591l-2 -1h-2v1q0 3 3 3zM462 490v-3h-4v3h4zM461 559v-2h-6v2h6zM461 527v-2h-5q0 2 2 2h3zM460 605h-2q-2 0 -2 3h1q3 0 3 -3zM460 573v-1l-7 -2q-2 0 -2 3q1 0 1 1zM460 420v-2
q-1 -2 -3 -2h-1v4h4zM458 512v-1q0 -2 -3 -4h-2q-2 0 -2 2v2q0 1 4 3h1q2 0 2 -2zM458 433l-1 -3q1 0 1 -1q-6 0 -13 -2q0 2 -3 6v1l6 -4h3v1q-6 0 -6 3h7v-3h3v3q2 -1 3 -1zM458 391q0 -3 -11 -7q0 3 11 7zM457 478q0 -3 -2 -3h-3v2q0 2 4 4zM457 422q0 -2 -2 -2h-2
q0 2 3 2h1zM456 608h-1q-15 7 -15 9h2q14 -7 14 -9zM456 599v-3h-4q0 3 3 3h1zM456 579v-1q-2 0 -4 -1l-1 2h5zM456 498v-4l-7 -2h-4v2h3v1h-3v3q4 0 4 1q3 -1 4 -1l-1 -3h3v1q-2 4 -8 4l-3 -4l1 -2h-2l-1 5l3 2h3q8 0 8 -3zM455 547v-1q-1 -3 -3 -3h-8v1q3 0 7 3h4z
M455 537h-6v2h3q3 0 3 -2zM455 459h-2q-2 0 -2 2h1q3 0 3 -2zM455 438v-4q-5 2 -7 2q-2 -1 -4 -1q0 3 3 3h8zM455 423q-2 -3 -8 -3h-2v1q0 2 3 2h7zM453 557v-1h-9v1h9zM453 531v-4h-4v2q0 2 3 2h1zM453 447q-1 -3 -1 -4h-7q-1 0 -5 6h11q0 -2 2 -2zM453 400v-3h-4q0 3 3 3
h1zM452 570v-1h-5v1h5zM452 559h-3l-9 1v1h3l-1 3h6l-1 -3v-1h1v3h3q0 -2 1 -4zM452 521q0 -2 -4 -4h-1v3q0 2 4 4zM452 459v-2l-7 -1q-6 1 -6 4v4h1q0 -1 2 -5h2l-1 2h4v1h-5v2h5q2 -2 4 -2v-1h-3q0 -2 4 -2zM451 412v-4h-3v1q0 3 3 3zM447 594l-3 -2h-1v2q0 2 2 2z
M447 569q-1 -3 -3 -3t-4 4h3q2 -1 4 -1zM447 426q0 -4 -12 -4l1 -2h-1q-6 0 -6 2l-3 -1q-9 0 -29 1q0 3 -5 3q0 2 3 2q9 0 9 -2l6 1q21 0 21 -4q12 4 16 4zM447 391h-4q0 3 2 3zM447 384q-1 -2 -3 -2h-1q0 2 2 2h2zM444 474q-2 -5 -4 -5h-1q-3 0 -3 3v3q0 3 3 3h3q2 0 2 -4z
M443 602h-4q0 2 3 2zM443 537v-2q-5 -2 -9 -2v-2l1 -2h-3q0 2 -5 6q0 3 3 3zM442 479h-2q-2 0 -2 3h1q3 0 3 -3zM442 387q-1 -3 -3 -3h-1v3h4zM440 617h-1q-32 18 -92 53q-9 4 -19 4h-1q-18 0 -60 -40q-45 -39 -46 -39h-2q0 2 73 64q20 19 34 19h1q17 0 65 -32
q45 -26 48 -29zM440 611v-3h-5q0 3 3 3h2zM440 564q0 -3 -2 -3h-2q-2 0 -2 3l2 1q3 -1 4 -1zM440 513v-2q0 -3 -6 -4v4q0 2 2 2h4zM440 486h-4q-2 0 -2 2h4q2 0 2 -2zM440 381q-11 -10 -15 -10q11 10 15 10zM439 442v-2h-3v4q3 0 3 -2zM439 429q0 -3 -4 -3h-13v1q11 0 17 2z
M438 436v-1h-6v1h6zM436 434q-1 -7 -20 -7v3h10v3q-17 -3 -18 -3q-6 0 -24 1h-11v-1h19v-1h-10v-3h2v-1q-9 0 -9 -2q-1 2 -8 2v-2h-5q-4 0 -13 4h-8v-1h8v-1q-2 0 -5 -3h-5l1 3v1h-5l-16 1v2h4v1q-16 1 -19 1v2h10q3 -2 4 -2l-1 3v1h5q0 -2 5 -2v-2h-2v-1h9q5 5 20 5h2v-1
h-3v-1h1q3 1 7 1v1h-4v1q3 0 9 6q0 -4 30 -6l-1 3h2v1q-2 0 -2 3h-3q0 -4 -2 -4q-3 0 -3 3q0 2 3 2h15q3 3 4 3h3v-4h10v-1q-6 0 -6 -3h-6l2 3l-7 1h-4v-3q13 -5 16 -5v-1h-4v-1h5v3h-5v2h8zM435 570v-1h-4q-2 1 -4 1v2h4q3 -2 4 -2zM435 561v-1h-14q-2 0 -2 1q-7 -2 -10 -4
h-5v2q2 0 2 2h11q0 3 -4 3q0 4 8 4v1h-5v1q4 0 6 2q2 -2 5 -2v-1l-5 -4h-1v-2q6 1 6 2q3 -1 5 -1v-1h-2v-2h5zM435 547h-4v3h1q3 -1 3 -3zM435 494q0 -3 -3 -3h-1v3h4zM435 457v-1l-1 -7h-3v4q0 2 4 4zM434 546v-2q-7 0 -7 -2h5v-2h-13v2h4v1h-2v1l9 2h4zM434 383v-4
q-3 0 -3 3zM431 556q0 -4 -5 -4l1 -2l-6 -2v2l2 3q-1 0 -1 2l3 1h6zM430 517v-3l-7 -1l-1 3l5 4q3 -1 3 -3zM430 465l-3 -1h-5v1q0 2 4 4q2 0 4 -4zM430 440h-1q-7 0 -7 8h7q0 -1 1 -8zM427 587v-4q-2 0 -2 3v1h2zM427 530v-1q-4 0 -9 -2v4h3zM427 457v-6h-4v2h-1v-2h-4v4
q5 0 8 2h1zM426 620h-4v2h1q3 0 3 -2zM426 576l-3 -2h-1q-3 0 -3 3v1h4q3 0 3 -2zM426 508v-1q0 -3 -3 -3l-1 3v1h4zM426 413v-3h-5v3h5zM425 483q-2 -5 -4 -5h-3q-7 0 -9 7h3q0 -4 2 -4h2q0 1 -2 1q2 2 2 4h6v-1q-4 0 -4 -4h4v4zM425 371q0 -1 -22 -15h-2q0 3 24 15z
M423 404v-3h-4v3h4zM423 377v-2h-1q-3 0 -3 3l3 1zM422 591v-1h-4v4h1q3 -1 3 -3zM421 425h-5v-2h5v2zM421 557v-1h-8v1h8zM419 579l-2 -1l-1 3l2 1zM419 538q0 -3 -2 -3q-3 0 -3 3h5zM417 503q-1 -3 -3 -3h-4q0 3 3 3h4zM416 589v-6h-3v6h3zM414 552v-1h-6v1q4 0 4 3
q2 -1 2 -3zM414 516v-3h-2q-3 0 -3 3h5zM414 459v-4h-10v1h2v1q-1 0 -3 2v-2q1 0 1 -1h-7v1l9 5q8 -1 8 -3zM414 416q0 -3 -2 -3h-2v3h4zM413 612h-4q0 3 3 3zM413 572l-3 -2l-2 6h4q0 -2 1 -4zM413 395h-4v2h1q3 0 3 -2zM412 589v-3q-1 -3 -3 -3q-3 0 -3 3zM412 533v-3h-4
v3h4zM412 490h-4v2h1q3 0 3 -2zM412 453v-1h-8l1 -3q0 -2 -2 -2h-15v1h9v1h-9l2 3v1h-3v2h5q3 0 3 -4h6q0 2 2 2h9zM410 598v-7h-4v4q0 3 3 3h1zM410 565v-1q-5 0 -7 -3q-1 0 -8 2h-2v-2q6 -1 10 -1v-1h-4q-7 1 -13 1v4l9 1q1 0 1 -1l7 2q1 -1 7 -1zM410 527v-1h-5
q-2 0 -4 4q3 3 4 3q0 -6 5 -6zM410 474h-4v3h2q2 -1 2 -3zM409 435q-4 3 -8 3q-2 0 -5 -5l3 -2h6v2h-8q0 1 4 3q7 0 7 -3h1v2zM410 378v-1q0 -3 -2 -3h-2v4h4zM409 556v-1h-6v1h6zM409 546v-2h-4q-3 3 -8 3v1h9q3 0 3 -2zM409 534l-3 -1h-1q0 2 -4 2l2 3h-4v1h9l-2 -2
q3 -1 3 -3zM409 369v-1q0 -3 -3 -3l-1 3l3 1h1zM408 488v-3h-4v3h4zM406 631v-2q-1 0 -3 -1v1q0 2 2 2h1zM406 508l-6 -1l-1 2l2 2h3q2 -1 2 -3zM405 553v-1h-9v3zM405 543v-1h-5q-3 0 -3 2q2 0 4 2q0 -3 4 -3zM404 579q-1 -2 -3 -2h-2q0 2 2 2h3zM404 482v-1q-1 -3 -1 -4
h-3l1 2q-4 0 -4 3h7zM404 420v-3h-4v3h4zM403 599q-1 -3 -3 -3h-1v3h4zM403 520v-3h-4q-3 0 -3 3h7zM401 361l-2 -1l-2 2l3 2zM401 356q0 -3 -2 -3h-2q0 3 3 3h1zM399 608h-4q0 3 2 3zM399 470v-1q-1 -3 -3 -3h-6v3q0 2 3 4h3q3 -1 3 -3zM399 396v-2h-2q-2 0 -2 2h4z
M397 586v-1q0 -3 -2 -3h-2v1q0 3 3 3h1zM397 578l-2 -1h-2v1q0 3 3 3zM397 533q-3 -8 -9 -8q-2 1 -4 1v8q7 0 7 4q4 -5 6 -5zM397 410q0 -2 -2 -2h-2q0 2 3 2h1zM397 353q0 -2 -2 -2h-2q0 2 3 2h1zM396 482q-1 -4 -5 -5q-5 2 -5 4q4 3 4 5h5v-1h-3v-2q4 0 4 -1zM395 559v-3
q-10 1 -12 3l-6 -3q-1 3 -3 3l-1 -3q-3 1 -4 1h-3v-1h4v-1h-8v2q4 0 8 6q14 -4 25 -4zM395 542v-2q-11 0 -12 -1q-5 2 -5 4h4q-1 3 -3 3h-1v-3q-3 0 -3 3q3 2 5 2q8 -1 8 -4q-2 -1 -5 -1v-1h5v2q4 -2 7 -2zM395 384v-2h-4v2h4zM393 586q-1 0 -3 -1v1q0 3 2 3zM393 570h-5v3
h3q2 0 2 -3zM393 551v-3h-9v2h6v1h-3v1h3q2 -1 3 -1zM393 512l-2 -1h-3v1q0 2 3 2q2 0 2 -2zM393 503v-4q0 -3 -2 -3h-3l2 3q-2 0 -2 1zM393 464v-2q-2 0 -2 -2h-5v1q2 0 2 3h5zM393 351q0 -3 -2 -3h-1q0 3 2 3h1zM392 555v-2h-1q-7 2 -11 2v1h8q3 -1 4 -1zM391 435l-3 1h-9
v-1q11 0 12 -1v1zM392 412h-4q0 2 3 2zM392 357q0 -2 -2 -2h-3v2h5zM391 427v-2h-5v2h5zM390 603v-1q-1 -3 -3 -3l-1 3l2 1h2zM388 434h-8v-1h8v1zM390 348q0 -3 -21 -13q7 7 21 13zM388 397v-1h-1q-3 0 -3 3v1h2q2 0 2 -3zM387 590v-3q0 -2 -3 -2h-2v2q0 3 2 3h3zM387 451
l-3 -5h3v-2h-3q-2 2 -4 2q0 2 6 5h1zM387 410h-5v3h2q3 0 3 -3zM387 387l-3 -1v4q3 -1 3 -3zM386 621v-3h-3q-3 0 -3 3h6zM386 615l-2 -3q-2 1 -4 1v2h6zM386 518v-2q-6 -1 -6 -3q-6 2 -6 4l6 -1zM386 457v-4h-4v2q0 2 2 2h2zM384 565h-5q0 3 3 3q2 -1 2 -3zM384 520
q-2 0 -2 -3h-5l2 4h-2v1h5q2 0 2 -2zM384 375v-4q-2 0 -2 3v1h2zM383 644v-3q-3 0 -3 2v1h3zM383 553q-1 -2 -1 -3h-7v1q4 0 4 2h4zM383 537v-2h-6v2h6zM383 461v-1l-8 -3v4h8zM382 491v-1h-8l1 2q-1 0 -1 2l3 1h1q2 0 2 -3h-1l-2 2v-2q2 -1 5 -1zM382 442h-5q0 2 2 2
q3 0 3 -2zM382 349q0 -2 -5 -4q0 2 -2 4h7zM380 477v-5h-5q-2 0 -4 7q3 2 4 2q5 -2 5 -4zM379 573v-3q-1 0 -4 -1l-1 3v1h5zM378 555v-2h-8v2h8zM377 602l-3 -2h-1v4h1q3 0 3 -2zM377 594l-3 -2h-3l-6 2q0 2 9 4zM377 533q0 -2 -4 -4h-4q-2 0 -5 8q1 2 1 3h2q10 -6 10 -7z
M377 452v-1l-10 -2v3q2 0 6 3h1q0 -3 3 -3zM377 447v-3l-10 -1q4 5 4 6h3q0 -2 3 -2zM375 577q0 -3 -2 -3h-3q-3 0 -3 3l7 2zM375 552v-1q-6 0 -17 -7q-9 -1 -10 -1l-7 1v2q3 0 3 2h3q3 0 5 -1h1v1q-5 2 -10 2v1h6v1h-5q-4 -2 -13 -4h-1v2l6 1q0 2 -2 2h-2v-2q-6 2 -13 2
l2 -2q-6 1 -9 1v1q2 0 2 3h1l39 5l2 -2q2 1 4 1v1h-6v2h8l3 -4q-4 0 -4 -3q-12 3 -17 3q-1 0 -1 -2l-3 2q-2 -1 -2 -3q2 0 2 -3l3 2h2q9 -3 13 -3v-1h-5q0 -3 3 -3h4q0 4 11 4h4zM375 521q-1 -3 -1 -4h-1v4h2zM375 384v-5h-1q-3 2 -4 2v1q0 2 3 2h2zM374 625v-3h-1
q-3 0 -3 3h4zM373 605q-4 0 -4 -1q-3 1 -4 1v3q4 1 8 1v-4zM374 509v-2q0 -3 -3 -3h-4q-2 0 -2 3v1q0 2 4 4q3 -3 5 -3zM373 434q-2 0 -4 1h-2v-1h3v-1q-13 0 -38 -4v-2h2q14 3 19 3q11 -1 18 -1l-1 2q3 0 3 3zM374 408v-1q0 -3 -7 -4l-2 4v2h2zM374 343h-1q-3 0 -3 2l3 2
q0 -2 1 -4zM373 650q-1 -3 -3 -3h-1q0 3 2 3h2zM371 638l-2 -1h-2v1q0 3 3 3zM371 568v-3l-6 1v3zM371 547v-1h-6v1h6zM370 630v-1h-1q-3 0 -3 2l3 2zM369 583h-4v3h1q3 0 3 -3zM369 526q-1 -2 -3 -2h-1q-3 0 -3 2v1zM369 335q0 -3 -7 -4q0 3 7 4zM367 647l-2 -1h-3q2 2 2 4
h1q2 -1 2 -3zM367 574q0 -2 -2 -2l-1 2h3zM367 447v-1q-2 0 -5 -3l-6 1q1 3 1 4h4zM366 652h-4v3h2q2 -1 2 -3zM366 469v-4q-4 0 -4 -1l-2 1h-3v-3h-5v3l1 3h-5v1q2 0 5 3q2 -6 9 -6h3v3h1zM366 460v-1q0 -3 -2 -3l-7 1v2q5 0 5 2q3 -1 4 -1zM366 351v-3h-4v3h4zM366 340
q0 -2 -2 -2q-3 1 -4 1v1q2 0 2 2q3 -2 4 -2zM365 553v-1h-4q-7 3 -12 3v1h5q10 -3 11 -3zM365 413l-3 -1q-2 1 -4 1v7h3q3 0 4 -7zM365 387q-5 -3 -5 -4q-3 1 -6 1v7q2 4 8 4q3 -4 3 -8zM364 378q-1 -3 -3 -3h-3v3h6zM364 371v-2h-4v2h4zM362 643v-4q-2 2 -4 2q0 2 3 2h1z
M362 534v-1h-5q0 2 -3 5v1h4q0 -5 4 -5zM362 481v-3h-4v3h4zM362 473l-1 -3q1 0 1 -1q-1 0 -1 -1q-5 1 -5 2q1 4 2 4q3 -1 4 -1zM361 624v-2h-1l-4 3q0 -1 -2 -1l-1 2h5q3 0 3 -2zM361 587v-1q0 -3 -3 -3h-2v3zM361 492v-2l-7 -2q-2 0 -2 3q3 3 5 3q3 -2 4 -2zM361 342h-1
q-3 1 -4 1v2h4q0 -1 1 -3zM360 569q-1 -3 -3 -3h-1v3h4zM360 521v-3q0 -2 -6 -4q-7 2 -7 4v2h2v-3h2q2 0 2 3h-4v1l7 1q2 -1 4 -1zM360 330q-13 -12 -41 -18q-20 0 -71 52v1l44 -39q18 -10 22 -10h8q8 0 38 14zM358 573v-3h-1q-3 0 -3 3h4zM358 507v-3h-7q0 3 2 3h5z
M358 452v-1h-7v1h7zM357 652h-1q-3 2 -4 2v1h4zM357 527v-1h-6v1h6zM357 404v-4q-6 0 -8 -1v2q0 2 4 4h3l-2 -2h2q0 1 1 1zM356 656h-2q-5 2 -5 4v1h2q2 0 5 -5zM356 646q-3 0 -5 -2v4q1 0 3 2q0 -2 2 -4zM356 607v-3h-3q-2 0 -2 3v1h1q2 -1 4 -1zM356 598v-3h-4q0 3 2 3h2z
M356 579l-3 -1h-1q-3 0 -3 3l4 2zM356 456v-1q-8 0 -8 -2v-1h-7q-10 4 -22 4q0 3 6 4v1l-2 3h5v1l-5 1v2h4l7 -2q0 -2 -6 -5q-3 -3 -3 -4h6q0 4 3 4q13 -1 19 -1v-1h-8q0 -3 11 -3zM356 439q-2 0 -5 -3h-2q-2 0 -6 7v4q13 -2 13 -8zM354 533v-2h-5l2 3q-6 0 -7 5h-4v1h8
q0 -5 3 -5t3 -2zM354 361v-1h-3v4h1q2 -1 2 -3zM353 617v-2h-4v2h4zM353 590v-3h-1q-3 0 -3 3h4zM352 566l-3 -1v3l2 2q-4 0 -4 3l2 1q3 0 3 -8zM353 392v-1q0 -3 -2 -3v4h2zM352 503v-3l-7 -1h-5q-2 0 -2 2v2l3 -3h3q3 0 3 3h-2l-2 -2q-3 2 -4 2v1h6zM352 334v-3
q-2 0 -4 -1v4h4zM351 639v-1l-6 -1v2h6zM351 366l-3 -1h-1v4h1q3 -1 3 -3zM348 509v-2h-4v2h4zM348 494l-3 -2h-5q1 3 7 6q0 -2 1 -4zM348 384h-3v4h2q0 -1 1 -4zM347 529l-3 -2h-1q-3 0 -3 3l5 1zM347 514q-1 -2 -3 -2l-1 2h4zM347 491v-4h-3v1q0 3 3 3zM341 459l2 -3v-1
h-3v-2h5v2q0 2 -4 4zM345 613v-2h-1q-3 0 -3 2h4zM345 469v-4h-7v1q2 0 2 3h5zM345 438q0 -3 -4 -3h-1v1zM344 397h-1q-3 0 -3 3h1q3 0 3 -3zM343 604h-5v3h2q3 -1 3 -3zM343 579v-1q-3 0 -3 3v1q3 0 3 -3zM343 442v-2h-8v-1h6v-1h-13v1l8 3h7zM341 664v-1q-1 -3 -1 -4h-5
q3 3 3 5h3zM341 650v-3h-3q0 3 2 3h1zM341 535q0 -2 -3 -4q-6 3 -7 6q3 0 3 3h4q0 -1 3 -5zM341 525v-1q0 -3 -2 -3l-1 3v1h3zM341 509h-3q-2 0 -4 4h2q5 -2 5 -4zM341 477v-4h-6v4q3 0 3 1q2 -1 3 -1zM341 336v-4l-5 -1h-1v1h3v2h-4v1l6 1h1zM341 327v-1q-13 -5 -22 -5h-4
l-6 1v1h3v2l-6 1v1h2q2 0 13 -5q4 0 19 5h1zM340 641q0 -3 -2 -3h-3q-3 0 -3 3v2q3 0 3 1q5 -2 5 -3zM340 488v-1h-2v4q2 0 2 -3zM340 366v-1h-2v4q2 -1 2 -3zM340 347v-2h-1q-3 0 -3 3v1h2q2 0 2 -2zM339 595v-4q0 -4 -5 -4q-6 2 -6 7l4 5q7 -2 7 -4zM339 576l-3 -2
q-2 0 -2 3v1h2q3 0 3 -2zM339 572v-3h-4v3h4zM338 628l-3 -2h-1v4h1q3 0 3 -2zM338 543v-1h-6v1q0 3 3 3q3 -1 3 -3zM336 460h-2v-1q0 -3 2 -3v1q-1 0 -1 2q1 0 1 1zM338 379v-1h-4v3q2 -2 4 -2zM338 360l-3 -2l-1 3l2 1zM336 566v-1l-1 -2q-3 1 -4 1q0 2 3 2h2zM335 557h-1
q-4 -1 -4 -2l-3 1h-1q0 -3 2 -3l7 2v2zM335 615v-2q0 -2 -3 -2h-1v2q1 0 4 2zM335 487v-1h-1q-2 0 -4 4v1h1q2 0 4 -4zM335 331v-1l-7 -1v-3q3 1 4 1h2v-1q-11 -3 -16 -3l1 3l-7 1v2q15 0 22 2h1zM334 395q-2 -4 -6 -5q-5 2 -5 4q2 0 2 1h-2q0 -1 -1 -1v1q0 2 4 4h4
q2 0 4 -4zM332 574v-2q0 -2 -4 -4l-1 2q0 2 4 4h1zM332 513h-5v4h1q2 0 4 -4zM332 498v-2q-2 0 -2 -1q-3 1 -4 1v3l5 1zM332 368v-2q-1 -2 -1 -4h-3q-2 0 -2 3q2 0 2 3h4zM332 342v-2q0 -3 -6 -4v2q0 3 6 4zM331 654v-2h-6v2h6zM331 542v-2h-3v-1h3v-1l-8 -1v2q0 3 3 3h5z
M331 446v-2q-3 0 -3 -2h-10q-2 0 -5 5q3 2 5 2l12 -1l-2 -2h3zM330 504v-3h-4v3h4zM328 548h-1q-2 2 -4 2v2h2q1 0 3 -4zM328 483v-1h-1q-2 0 -4 4l3 1zM327 447h-4l2 -3q-2 0 -2 -1q3 1 4 1v3zM328 435v-1h-5v1h5zM327 669h-4q0 3 3 3zM327 667v-2h-8v2h8zM327 600l-2 -1
h-4l-2 5l3 1h4zM327 531v-1h-5v1h5zM327 386v-3h-4q0 3 3 3h1zM326 660v-1q-3 0 -12 -3h-1v1q2 0 6 7q3 -1 4 -1v-2h-2v-1h5zM325 656v-1h-6v1h6zM325 630v-2h-2q-2 0 -2 2h4zM325 331v-1h-6v1h6zM323 652v-2q0 -2 -4 -4q-2 0 -2 2v3zM323 577l-2 -1q-3 1 -4 1v2h4q2 0 2 -2
zM323 570v-1h-1q-3 0 -3 3l3 1zM322 448h-4l-1 -2v-2h1q0 3 4 3v1zM323 344v-1q0 -3 -2 -3l-2 3v1h4zM322 566h-4q0 3 3 3zM322 550v-3q-13 4 -20 4v1h6q12 -2 14 -2zM322 543v-1q-5 0 -9 -3q-2 1 -7 1v2l12 1h4zM322 525v-1q-3 0 -3 2v1q3 0 3 -2zM322 495v-1q0 -3 -3 -3
q-2 0 -2 3v1h5zM321 622q-1 -2 -3 -2h-1q0 2 2 2h2zM321 511v-2l-7 -1h-1q-3 0 -3 3h4v1q-1 0 -4 1v-2h-2v1q0 3 6 4q6 -3 7 -5zM321 423v-1q-1 -2 -3 -2q-3 0 -3 2v1h6zM319 461v-1q-2 0 -2 -3h-2q0 3 -2 3v1h6zM318 392v-4h-5v2q2 0 5 2zM318 330h-3q-20 5 -22 9h2l2 -1v1
q-2 0 -2 3h1q9 -8 22 -11v-1zM317 585v-2h-2q-2 0 -2 3l2 1zM317 534v-4h-3q-2 0 -4 4q3 3 4 3q3 -1 3 -3zM317 524v-4h-5v1q0 3 2 3h3zM317 475v-1h-3l1 -2q0 -3 -2 -3h-4q-2 0 -4 4q0 2 7 4q2 -2 5 -2zM317 436v-1h-11v1h11zM317 342v-2h-3v4q3 0 3 -2zM315 630v-1
q0 -2 -3 -4l-2 3l2 2l-3 -1h-4v1q1 4 8 4zM315 595v-3h-1q-2 0 -2 3t2 3zM315 400l-2 -1h-3q0 1 -1 4h4q2 -1 2 -3zM314 487q0 -2 -2 -2h-2q-2 0 -4 3v2h6q2 -1 2 -3zM314 439v-1h-9v1h9zM313 655q-1 0 -5 -1v2q0 3 2 3h2q0 -2 1 -4zM313 566v-5l-7 -1h-1q-3 0 -3 3v3l7 2
q2 -2 4 -2zM312 474h-4v-1q0 -3 2 -3h2l-2 3q2 0 2 1zM313 465q0 -2 -4 -4h-4l1 3q-1 0 -1 1h8zM312 603v-1h-4v1q0 2 2 2zM312 546v-3h-3q-3 4 -5 4q0 3 2 3q6 -2 6 -4zM312 530v-1q-5 0 -19 -3q0 2 -2 7h2q0 -4 3 -4h1v1q-4 0 -4 4h9l-1 -3l3 -1q0 3 2 3q0 -3 6 -3z
M310 647q0 -3 -2 -3h-3v4q2 -1 5 -1zM310 621q0 -3 -2 -3l-2 3h4zM310 611v-2h-5v2q0 2 3 2q2 0 2 -2zM310 578v-2h-4v5h2q2 -1 2 -3zM309 595v-4h-5q0 2 5 4zM308 499h-4q0 2 2 2zM308 395q-1 -3 -7 -5l-1 2v4l1 3q7 -2 7 -4zM306 540v-1q-4 0 -4 -1q-2 1 -3 1v1h7z
M306 378v-3h-5v3h1l3 -1q0 1 1 1zM306 364v-3h-4v3h4zM306 353v-2h-4q0 2 3 2h1zM305 522h-4v3h1q3 -1 3 -3zM305 452q-2 0 -4 -4h4v-1h-6q0 2 -3 5q5 1 5 4h3q0 -1 1 -4zM305 425v-2h-5v3h1q3 -1 4 -1zM305 339h-1q-3 0 -3 3h1q3 -1 3 -3zM304 590v-1q-1 -3 -3 -3v4h3z
M304 573l-3 -1q-2 0 -4 4l3 1q2 0 4 -4zM304 479q-1 -2 -3 -2l-1 2h4zM304 438v-2q-6 0 -20 -2q-14 2 -22 2v2q5 0 7 1q2 -1 4 -1l5 2q13 -2 26 -2zM304 433h-7q0 2 3 2h1q3 0 3 -2zM304 368h-5v2h2q3 0 3 -2zM304 344h-2q-2 0 -2 3h1q3 -1 3 -3zM302 637q0 -2 -3 -4v1
q0 3 2 3h1zM302 616v-3h-3q0 3 2 3h1zM302 598q0 -3 -2 -3h-3l-2 1q2 6 4 6q1 0 3 -4zM302 548h-1q-11 3 -13 3h-2v-1h6v-2l-6 -1q0 3 -11 3v1q16 1 17 1q10 -1 10 -4zM302 547v-1h-6v1h6zM302 501q0 -2 -6 -3l-1 2q1 4 5 5zM302 466v-1h-9q-2 1 -4 1v2h2q7 -2 11 -2z
M301 439q-14 1 -14 3q0 1 -3 1v1h2q8 -2 10 -2q0 2 4 4q1 -2 1 -7zM301 569v-3h-1q-3 0 -3 3h4zM301 492v-2q0 -3 -2 -3h-2q-4 3 -6 8l2 1h4q2 0 4 -4zM301 342h-1q-3 0 -3 2h2q2 0 2 -2zM301 331v-1l-6 -1l-3 3l5 2q0 -3 4 -3zM299 647q0 -3 -7 -4v4q3 0 3 1q2 -1 4 -1z
M299 612v-1q-1 -3 -3 -3h-1v1q0 3 2 3h2zM299 560v-3h-6v2q5 1 6 1zM299 511q-1 -3 -3 -3q-8 1 -8 4v1q0 2 4 4h5zM299 486q-1 -3 -3 -3h-3v3h6zM299 475q-2 -2 -2 -3h-5q-4 3 -6 3v2h3v-2q5 3 7 3q0 -3 3 -3zM299 355q-4 0 -4 -4q-6 2 -11 9v1l7 -5h4l2 1zM297 624
q0 -3 -2 -3h-2v3h4zM297 586v-4h-6q0 1 -2 4q3 1 4 1q3 -1 4 -1zM296 566v-1q-3 1 -4 1v3h1q3 0 3 -3zM296 542v-2h-5v3h1q3 -1 4 -1zM296 392v-2q-1 0 -4 -2v2q0 2 3 2h1zM296 345h-1q-2 0 -4 4h1q2 0 4 -4zM295 459h-4v2h1q3 0 3 -2zM295 407h-4q0 2 2 2zM295 399l-6 -2
l-1 3v1h4q3 0 3 -2zM292 539v-1q-5 0 -5 -4h-1q-2 0 -4 4l9 1h1zM292 423v-2h-1q-3 0 -3 2h4zM292 378v-1q0 -3 -3 -3h-2v4h5zM291 617v-2h-4v2h4zM291 564v-1h-3q-5 2 -5 3v2h4q0 -4 4 -4zM291 521v-1l-16 -2v3q4 0 4 4q-4 0 -4 -4h-2v1q1 4 7 4h4v-1h-4v-1q4 0 4 -3h3v3h1
q0 -3 3 -3zM291 451h-4q0 2 -3 2v2h5q0 -2 2 -4zM291 347q-2 0 -2 -2q-5 3 -6 6v1q8 -3 8 -5zM289 612v-4q-2 0 -2 3zM289 546v-2q-5 0 -5 -2h-4q-3 0 -5 1h-1v-1h2v-2h-3l1 -2h-8v1h4v3q-12 -2 -14 -2l1 -2q-13 2 -14 2v-2h5l9 -1v-2q-5 0 -5 -2q-5 4 -18 6v-2h7v-2
q-9 0 -20 -2h-2q0 5 5 5v1h-3v1h11v2q3 -2 4 -2h5v2l-7 1v1h2q10 -2 12 -2h2v1q-1 0 -10 1v2h3l14 -3h3v1q-2 0 -11 2v1h3q2 0 18 -4h3v1l-16 3v1h6q12 -4 15 -4l9 2h2zM289 529h-3v4q1 0 3 -4zM289 492q0 -2 -2 -2h-1q0 2 2 2h1zM289 366h-3q0 3 2 3zM288 629q0 -2 -4 -4v1
q0 3 3 3h1zM288 578v-5q-2 0 -2 3v2h2zM288 413h-2q-3 0 -3 3v1q5 -2 5 -4zM288 352h-1l-5 4v-3q-3 0 -3 3h1l-4 6h2q5 -2 10 -10zM287 485v-3q-1 -3 -3 -3t-2 3v3h5zM286 461v-1h-8v2q2 -1 8 -1zM286 374q-1 -3 -3 -3v6q3 -1 3 -3zM284 583l-2 -1h-4q0 2 -3 5v3q9 -5 9 -7z
M284 473v-4l-9 1q1 4 3 4zM284 425q0 -3 -2 -3l-2 3h4zM283 604v-1q0 -3 -3 -3l-1 3l3 1h1zM283 501v-1h-4v4h1q3 0 3 -3zM283 396q0 -2 -3 -2h-1v2h4zM282 559l-3 -2h-6v2q0 2 3 4h2q2 0 4 -4zM282 496v-1q-1 -3 -3 -3h-1v2q0 2 2 2h2zM282 377v-2q0 -1 -4 -4h-3v3q2 0 5 3
h2zM280 574l-2 -1h-2v4h2q2 -1 2 -3zM280 535q-1 -2 -1 -5h-13l-3 1l2 3v3h-7v1h7q4 -1 4 -3l2 2h3v-6h1q3 0 3 4h2zM280 459v-4q0 -3 -2 -3h-4q-3 0 -3 3q0 2 4 4h5zM280 447v-5h-1v5h1zM280 388v-2h-1q-3 0 -3 2h4zM279 478v-1q-1 0 -4 -2v3h4zM276 547h-1l-9 1v2h8
q2 -1 2 -3zM275 485v-2h-2q-3 0 -3 3v1h3q2 0 2 -2zM275 446v-2q0 -2 -4 -4h-5v2h4v1h-4v1zM275 423v-1q-2 0 -4 4h2q2 0 2 -3zM274 508h-1q-3 0 -3 3v1h3q0 -2 1 -4zM273 629q-4 -7 -10 -7v3q4 0 8 4h2zM273 569v-1h-3v4q3 -1 3 -3zM273 475q0 -2 -8 -6q-9 1 -12 3q2 6 4 6
h6zM273 374v-1h-6v5q6 -2 6 -4zM271 520v-3h-5q0 3 -6 3v4h3v-2h-2v-1q5 0 10 -1zM262 477h-4q-2 -1 -2 -3q4 -2 7 -2l7 1q-1 4 -8 4zM271 418v-1q0 -3 -2 -3l-2 3l3 1h1zM271 382q-1 0 -1 -1q-3 1 -4 1v2h3q2 0 2 -2zM270 455v-2h-7q0 2 -1 2v-3h-2q-3 0 -3 3q1 2 1 4h4
q0 -4 8 -4zM269 613l-3 -1v4q3 -1 3 -3zM269 501l-3 -1h-1l1 3l-8 1v1h8zM269 464v-2h-8v2q0 2 2 2h2q0 -2 4 -2zM269 401l-3 -1v4q3 0 3 -3zM269 388h-4v3h1q3 0 3 -3zM266 492v-2h-10q-3 0 -3 2l3 2v-3h1q3 0 3 3h-3v1h5q0 -3 4 -3zM266 475v-2h-5q-3 0 -3 2h8zM266 448
l-3 -5q2 0 2 -1h-7v6l-4 -2h-1l3 5q2 0 10 -3zM266 440v-1h-6v1h6zM265 615q0 -2 -4 -4h-1v1q0 3 2 3h3zM265 526v-1h-5v1h5zM265 512v-3h-5q0 3 2 3h3zM265 499h-4q-3 0 -3 2l3 2q2 0 4 -4zM265 429v-4h-2q-2 0 -2 2l2 2h2zM263 368h-2q-3 0 -3 2v1q5 -1 5 -3zM262 377
l-2 -2q-3 0 -3 3q1 0 4 1zM261 486v-3h-1q-3 0 -3 3h4zM261 403q-1 -3 -3 -3h-1v3h4zM260 618q0 -1 -7 -6v4q2 0 5 2h2zM258 613q0 -2 -2 -2h-2q0 2 3 2h1zM258 574h-1l1 -2v-2q0 -2 -2 -2h-2v9h2q2 -1 2 -3zM257 599l-3 -1h-1v4h1q3 -1 3 -3zM257 531v-1h-7v1h7zM257 513
q0 -2 -4 -4h-1v2q0 2 2 2h3zM257 414v-2h-1q-3 0 -3 2h4zM256 439h-9v1l7 2zM256 394q-1 0 -6 -2l-1 3l3 1h1q3 0 3 -2zM254 516q-1 0 -7 -2h-2v2h3v1h-4v-3h-3v6q13 -2 13 -4zM253 498q-3 0 -5 -2l-1 3v2h2q2 0 4 -3zM253 469l-1 -3q1 0 1 -1h-4l1 3q-1 0 -1 1h4zM253 418
h-3q-2 0 -2 3h2q3 -1 3 -3zM252 556v-3h-4q0 3 2 3h2zM252 527q-2 -5 -9 -7v2h2v4h-5v1h12zM252 460q-1 -3 -3 -3h-4v2zM250 602v-3q0 -2 -6 -4v3q4 0 4 4h2zM250 579q-1 0 -1 -1q-2 1 -5 1v2q0 2 3 2q1 0 3 -4zM249 490v-2q0 -2 -2 -2h-3v4h5zM249 451l-6 -2h-6v2q7 0 10 4
h1q0 -2 1 -4zM249 430h-1q-3 0 -3 3h2q2 -1 2 -3zM249 384q0 -2 -2 -2h-2v1q2 3 2 4q2 0 2 -3zM248 605q-1 -2 -3 -2t-2 2h5zM248 573l-3 -1h-2q-3 0 -3 2v2h5q3 -1 3 -3zM248 566v-5q-7 -4 -7 -8h-1q-3 0 -3 3q4 4 4 12zM248 447v-3q-3 0 -13 -2h-4v1h5q0 4 -10 4v1
q5 0 5 4h5v-1h-4q2 -4 3 -4h4v-3q2 0 9 3zM248 443q-1 -3 -3 -3h-6v2zM248 403v-2q-1 -2 -3 -2t-2 2l2 2h3zM244 550q0 -3 -3 -3h-1q0 3 3 3h1zM244 425v-2q0 -2 -3 -2l-1 2l3 2h1zM243 596l-3 -1q0 1 -1 4l2 1q0 -1 2 -4zM243 533v-4h-7q0 3 7 4zM241 514q-1 -2 -1 -3h-6v1
q0 2 2 2h5zM241 496l-4 -2h-2l-7 1v1q2 4 8 4h3l-2 -2h2q0 1 1 1zM241 481v-2q-5 0 -5 -2q-12 1 -12 5v1l7 2h3q7 -1 7 -4zM241 392h-1q-2 0 -5 5v2q3 0 6 -7zM240 526v-1l-3 -4h3v-1h-5q0 1 1 1l-1 3v2h5zM240 407v-2q-3 3 -5 3v1h4zM239 505v-1q-1 -3 -3 -3h-1v4h4z
M239 488v-1h-3q-2 0 -2 3q1 0 3 1zM237 482l-6 1h-3v-1q0 -3 3 -3v2q-1 0 -1 1h5l-1 -3h3v3zM239 460v-4l-5 -1v2q0 3 2 3h3zM237 435v-2h-2q-3 0 -3 2h5zM236 589v-6q-4 0 -6 -1q-3 1 -6 1q0 1 4 4l3 -1l4 3h1zM236 564v-1q0 -3 -2 -3h-2v1q0 3 3 3h1zM236 529v-2
q-7 -3 -10 -3q-2 2 -2 3h-2q0 -3 -21 -3v1h-4l-6 1v1h2l-1 3h4l4 -3h2q0 3 -5 3v3q5 -3 11 -3l-2 -3l3 -1h1v1h-2v2h5v1h-5v1q5 0 5 4q-6 3 -8 3v1h1q3 0 12 -6h1v-2h-5v-1h3l13 3l-2 -3v-1h8zM236 414h-2q-3 2 -4 2v5q1 0 6 -7zM235 599q-1 -3 -3 -3h-5l4 4q2 -1 4 -1z
M234 573v-3l-2 -2q-2 1 -4 1q0 2 4 4h2zM234 550v-4q-2 0 -4 4q0 2 2 2zM234 516q-3 0 -7 -4h-3q-2 0 -2 2v2q0 2 4 4h6q0 -2 2 -4zM232 397h-6q1 3 1 4h1q2 0 4 -4zM231 507q0 -3 -3 -3h-2q0 4 -4 4v1h6q0 -2 3 -2zM231 464q0 -2 -1 -2l1 -2v-3q-4 0 -4 -2q-2 1 -6 1v1
q0 3 3 3v1h-2v1h2l-1 3h3q0 -3 1 -3q3 2 4 2zM231 444v-1l-7 -1q0 3 -1 5h1q5 -3 7 -3zM230 557v-2h-3q-3 0 -3 2h6zM230 473v-1q-1 -3 -3 -3h-1q1 2 1 4h3zM228 592v-1q0 -2 -2 -2h-2v3h4zM228 582q0 -3 -2 -3h-2q0 3 3 3h1zM227 498q-4 -2 -8 -2q2 5 4 5h3q0 -1 1 -3z
M227 487l-3 -1h-1v4h1q3 -1 3 -3zM227 429h-1q-3 0 -3 2h1q3 0 3 -2zM227 409v-4h-4q0 2 4 4zM226 546l-3 -2h-2q0 3 -2 6l3 1h2q0 -3 2 -5zM226 472l-3 -2q-12 3 -17 3v1h17q3 0 3 -2zM224 583q0 -2 -2 -2h-1q0 2 2 2h1zM222 586v-1q-2 0 -4 -2l-1 3h5zM222 446v-3h-7v1z
M221 572q-2 0 -6 -6h3v-1q-1 0 -5 -1h-2v1h3v1h-1q-3 -1 -4 -1q0 2 8 5l-2 3v1q2 0 4 2q0 -2 2 -4zM221 542v-2q-4 0 -10 -1h-1v1q2 0 5 4h4l-1 -2h3zM221 482v-1q-3 0 -6 -2v4h-1q0 -1 -1 -4h2v-1h-1l-13 1v2q4 0 9 5zM219 595q-22 -20 -61 -45q1 0 1 -2h-1q-1 0 -1 2
q-5 -2 -5 -4q1 0 1 -2h-1l-3 2v-2q1 0 1 -1l-2 -1q-2 0 -2 1q-7 -3 -7 -5q1 0 1 -1q-5 -1 -5 -3l-3 1q-2 0 -2 -2q1 0 1 -2h-1l-3 2v-2q1 0 1 -1q-5 -3 -6 -3v-1q2 0 6 -4v2q-2 0 -2 2h1q2 0 4 -4q-3 0 -3 -2q3 1 5 1l-5 6q7 4 9 4v-1q5 3 7 3l-1 -3q1 0 1 -1h-1l-3 1v-1h1
q0 -4 -6 -4v-1h4l17 5q0 1 1 1l2 -1l6 2q1 0 1 -1l6 1h3l-1 -2l-3 1h-1v-1h2v-3q-5 3 -7 3l-3 -4h3v-3q-5 3 -7 3q-9 -3 -13 -3v-1h8l-1 -3h4v3l2 -1q1 0 11 2q0 -1 1 -4l-8 -1q-2 1 -4 1h-1v-1l6 -1v-2q-1 0 -7 -1h-2v1h4v2q-3 0 -5 1l-8 -1v-2q1 0 8 -1v-1h-4q-5 2 -8 2
l-8 -1l2 -2q4 2 6 2q9 -2 11 -2v-2h-3q0 -2 4 -4h3q0 3 5 6v-2l-2 -2h2q-2 -3 -2 -4l-9 1h-6v-1h6v-2q-7 0 -7 -1v-1h-12l-7 -1v-2h3v-1h-3v-1h7v-2q-9 -1 -11 -1l2 3l-3 -2q-2 2 -4 2l2 2v2h-11v-2h7l-2 -2q2 0 2 -2q-1 0 -6 -1q0 1 -1 1q0 -2 -2 -2l-3 1v-1q1 0 1 -2
l-2 -1q-3 0 -3 3q3 0 3 2h-2q0 -2 -4 -2v-2q4 0 4 -3l3 1v-1l3 1h1l-3 -4h2q0 3 2 3h1l-2 -4h1q0 2 3 2h1l-1 -2l5 -2l-1 -2q2 -2 4 -2q-1 -2 -3 -2q-3 2 -5 2l1 3l-3 1v-1q2 0 2 -1h-2q-18 9 -18 18v5q0 17 48 40q54 35 81 55h1zM219 579q0 -2 -2 -2h-2q0 2 3 2h1zM219 427
v-4q-2 2 -4 2v2h4zM219 409l-5 -1q1 2 1 4h2q2 -1 2 -3zM218 501v-1l-7 -1h-1v1l1 3q-1 0 -1 1h5q3 0 3 -3zM217 561q-2 -2 -2 -4h-1q-3 0 -3 3q5 1 6 1zM217 514v-1q-2 0 -7 -6h-4v-2l2 -2q-15 0 -19 -3l-1 3q13 0 13 4q0 1 5 1l-1 9q-1 0 -1 -1q-3 1 -4 1v1h5q11 -4 12 -4
zM217 490l-6 -2v4h3q3 0 3 -2zM217 461v-1q0 -2 -4 -4h-2v3q0 2 3 2h3zM217 416l-3 -2h-1v6q2 0 4 -4zM215 522v-1h-5v1h5zM215 520v-2h-5v2h5zM215 438q0 -3 -2 -3h-2q0 3 -1 5h3q2 0 2 -2zM214 468l-1 -7l-3 1q1 3 1 6h3zM214 446v-2h-5v2h5zM214 399h-1q-2 0 -12 11h1
q2 0 12 -11zM213 582v-3q0 -1 -4 -3v1q2 5 4 5zM211 535v-1h-3q-6 3 -8 3v1h4q4 -3 7 -3zM210 557v-1q-1 -2 -1 -4q-3 0 -3 3v1q2 0 4 1zM210 436h-1q-3 0 -3 3h2q2 0 2 -3zM210 431v-1q-2 -5 -4 -5l-4 2q2 3 2 4l2 -1h2zM209 472q-1 -3 -3 -3q-6 3 -6 5v1h6l-1 -2v-1h4z
M208 547v-1q-2 0 -4 -2v3h4zM206 564v-1q-2 0 -5 -3q0 5 -4 5v1h5q0 -2 4 -2zM206 439h-1q-3 0 -3 3h2q2 -1 2 -3zM205 534v-1h-4l-3 1q-2 -1 -3 -1h-4v1h5v1h-3v2h3zM205 521v-1h-4q-2 1 -4 1h-1v-1h2v-2h-5v2h-2q0 -4 -4 -4l-2 2q6 3 10 3v1h-3l-7 -1l-6 1q-1 -5 -5 -5h-3
v1h4v2h-5v2l2 -1h4v1h-5v2q8 0 20 1q9 -4 14 -4zM205 494v-2q-4 0 -7 -1v3h7zM205 453q0 -2 -3 -2h-1v2h4zM204 572l-3 -2q-3 0 -3 3q2 0 4 1zM204 498v-2q-24 0 -24 -2v-2h-2v4q6 0 6 3q6 -1 20 -1zM204 464q-1 -3 -3 -3h-1l-7 1v2q4 0 4 1q2 -1 7 -1zM204 455q-2 0 -4 -2
l-3 4l3 2q2 0 4 -4zM202 516v-2h-5v2h5zM202 470q0 -2 -4 -4q0 4 -5 4v2h4q2 -2 5 -2zM202 420l-2 -2l-3 2q1 2 1 3q2 0 4 -3zM201 482v-1h-8v1h8zM201 439v-1q-2 0 -6 -4q-2 0 -4 4l5 1v-1q2 1 4 1h1zM201 410h-1q-2 0 -7 7h2q1 0 6 -7zM200 547v-1l-13 -4v1q2 5 8 5l-2 -2
h2q2 1 3 1h2zM200 509h-5v3h2q3 -1 3 -3zM200 477q-2 -3 -2 -4h-2q0 4 -4 4h-3v1h7q2 -1 4 -1zM198 427v-2h-2q0 3 -1 5h1q2 0 2 -3zM197 570v-1q0 -2 -5 -5h-1q2 6 5 6h1zM197 456l-1 -3q1 0 1 -1h-1q-5 3 -11 3v1h12zM197 449v-2q-2 0 -2 -1q-3 1 -4 1v1zM196 561
q-3 -5 -8 -5q3 5 8 5zM195 490v-2l-2 -2q2 0 2 -1h-4l-7 1l1 2h-2l-4 -2h-1v4h1l12 1q2 -1 4 -1zM193 465q-7 -1 -8 -1q2 6 4 6h2q0 -2 2 -5zM193 417h-1q-2 0 -7 6h2q2 0 6 -6zM191 535v-1h-3v-1h3v-2h-4l-3 2q0 -3 -2 -3l-7 1v2q3 0 14 2h2zM189 479v-1q-2 0 -2 -3
q-5 2 -12 2v1q8 0 8 3q2 -2 6 -2zM189 433v-2q0 -2 -2 -2l-2 2l3 2h1zM188 440q-1 -2 -1 -4q-2 0 -5 6l2 1h1q3 0 3 -3zM187 559q-2 -4 -8 -4h-1q-3 0 -3 2q5 2 5 4q3 -1 4 -1l-1 -3l2 2h2zM187 513v-1h-4v-1h4l-2 -3q2 0 2 -1h-7l2 2v2h-2q-2 0 -18 -2v3h1l7 -1l-3 3
q10 3 18 3v-3l-2 2h-5v-2h4v-1h-6v-1h3l6 1h2zM187 444h-2q-2 2 -5 2l2 2q5 -2 5 -4zM185 423h-1q-2 0 -5 6h1q2 0 5 -6zM183 466v-2q-1 -3 -3 -3h-2l1 3v1h-8v1h4v2h-5v-2l1 -2q-3 0 -5 -2l1 -2v-1h-2q0 3 -4 3q1 3 1 6l3 -2q5 3 5 4q11 -4 13 -4zM180 485v-2h-4
q-13 3 -17 3v1h7zM179 482v-1h-8v1h8zM179 451v-2l-5 -1q0 1 -2 1v-2h-1q0 3 -1 5h2zM178 546q-6 -2 -6 -4h3l-1 -3h2v-1h-5q0 2 -4 2v2q5 0 5 4v2q-1 0 -3 2v-2q1 0 1 -1q-3 0 -9 -5q-2 0 -2 1l-2 -1l-3 1v-1q2 0 2 -2q-2 0 -2 -1q2 0 2 -1l-10 -3q0 2 -1 4q4 3 7 3
q0 -2 1 -2v2q-1 0 -1 1q14 9 17 9q0 -1 1 -1v1q-1 0 -1 1l2 2h1l-1 -3q1 0 1 -1q-1 0 -1 -1h1l2 2q-2 0 -2 1h2q2 0 2 -2h-1zM178 430h-2q-2 0 -4 4h2q2 0 4 -4zM175 492q0 -2 -3 -2h-3v2h6zM175 475q-1 0 -4 -1q0 3 -2 3v-2l-3 2h-7v-3h-2q0 3 -5 3v1q0 3 6 4l-1 -3v-1
q1 0 1 1q7 -1 11 -1q2 1 3 1zM174 495h-3q-2 0 -2 3v1h3q0 -2 2 -4zM172 444v-4q-2 0 -2 3v1h2zM170 526v-1h-4l-1 2h1q2 -1 4 -1zM170 436h-1q-3 0 -3 3h1q3 0 3 -3zM169 451q-4 -3 -4 -5h-2q-1 0 -4 3v2h10zM167 540q-3 -6 -5 -6h-1l2 8q3 -2 4 -2zM167 508v-1h-5v1h5z
M167 492v-1q0 -3 -2 -3q-1 0 -8 2h-3v-2h4v-1h-4q-9 3 -15 7h-2l2 2h-3v2h10l13 -2q-1 -4 -7 -4l-3 2h-1v-2q1 0 4 -1q7 1 11 1h4zM161 521h-4v3h1q3 -1 3 -3zM159 466v-1q-5 0 -5 -3q-2 2 -4 2l-5 -2q-9 5 -9 7h1q6 -3 8 -3q0 3 -10 4v2q5 0 10 1l-1 -3l6 -1v-1h-2v-3h2
l4 3q3 -2 5 -2zM158 538l-1 -3q1 0 1 -1h-1q-1 0 -1 1l-3 -1h-1q0 3 6 4zM158 457l-1 -2q1 0 1 -2h-8v4h3q1 0 1 -1l3 1h1zM152 534q-2 -5 -7 -5v1q0 3 7 4zM150 487v-1h-5v1h5zM148 452h-2q-2 0 -2 3h1q3 -1 3 -3zM145 508h-1l-12 -1l1 2q0 2 -5 4q0 -4 -9 -4v-1h3l-2 -3
q3 0 8 6h4v-3h-2v-1h2v-2q-1 0 -17 -1v-1q7 0 15 -3l1 3h-4v1l8 1l8 -1zM144 517q-6 3 -7 3h-1v-2q2 0 7 -2h1v1zM144 535v-1q-1 0 -5 -1v1l1 3q2 -2 4 -2zM144 488v-1h-5v-2l5 -2v-1q-8 0 -8 -4h3v-1h-3q-5 2 -5 4v5h4v2l-9 2v1l9 1h1v-1h-4v-1zM140 474v-1h-4l-6 1l1 3
q6 -3 9 -3zM132 472v-2h-2q-3 2 -4 2v1h2q3 -1 4 -1zM132 465h-1q-8 3 -8 5h1q8 -3 8 -5zM131 488v-1h-7q0 1 -2 1v2h1zM130 479q-4 -2 -6 -2q-4 2 -6 2v2q3 0 10 1zM126 522l-4 3v-1l4 -3v1zM123 486q0 -3 -3 -3h-1q0 3 3 3h1zM119 525l-2 1v-1q1 0 1 -1h-1l-3 1v-1
q1 0 1 -2q-1 0 -1 -1l3 1l2 -1v1q-1 0 -1 2q1 0 1 1zM119 518q-4 -2 -6 -2v-2h1q5 2 5 4zM120 486l-5 -3q-2 2 -4 2l3 3q-3 2 -4 2v1l5 1h2v-1h-3v-1q6 -1 6 -4zM120 472l-2 -2h-1l1 3q-1 0 -1 1h1q2 0 2 -2zM117 500h-10v-1h10v1zM113 521l-3 1v-1q1 0 1 -1q-1 0 -1 -2h1z
M109 521h-2l-1 -3q1 0 1 -1q-1 0 -1 -1h1l2 2q-2 0 -2 2q2 0 2 1zM104 512h-3l1 2h-1l-1 -2q1 0 1 -1q-1 0 -1 -2q2 2 4 2v1z" />
    <glyph glyph-name="glyph103" unicode="&#xe005;" horiz-adv-x="1718" 
d="M1607 251v-20q0 -145 -68 -241q-40 -64 -136 -93q-7 0 -9 -1q-35 0 -77 22q-30 20 -40 55q0 10 -82 49q-170 69 -265 69h-21q-41 0 -246 -21q-35 -1 -52 -1q-221 0 -354 96q-64 34 -69 42h3q14 0 133 -74q57 -26 63 -26l-67 40q-42 33 -60 64q-11 14 -73 45q0 3 -20 13v3
q15 -4 77 -33v1q-14 33 -19 53h2q7 -7 38 -67q43 -21 133 -21h39q3 0 6 -2h2v2l-167 90h-2q-5 0 -22 -3l-3 4q0 2 11 8q-50 56 -63 56q0 2 2 10q-8 22 -23 37q-43 -18 -49 -18v2q29 21 46 21q0 12 -16 41h-1q-32 0 -77 -38q-3 -2 -7 -2l-1 4q0 4 25 25h-1q-56 -13 -58 -13v4
q31 11 107 32q7 3 7 4q-24 63 -27 76h1q7 -8 34 -74q63 11 189 29v2l-29 24q0 3 3 3q13 0 44 -27h4q24 0 24 4q-54 34 -81 36l-39 -7l-1 3v4q0 2 25 16q6 7 10 14q-47 -6 -99 -24q0 13 85 29l96 22q13 0 14 2q22 -2 56 -7l31 12h1q10 0 26 -13q20 14 26 14h4q7 0 10 -29
l3 -1q7 13 16 16q21 0 47 -82q9 -10 21 -16q3 21 19 21h9q20 0 37 -37v-5q0 -2 -5 -5q-2 0 -20 8q0 -1 -2 -1q0 -13 82 -43q15 -10 72 -24q57 -40 70 -42h4q7 0 33 21h4q3 0 33 -15q6 -3 47 -5h1v2q-78 34 -216 83q-143 79 -274 177q-35 29 -40 29q-56 -16 -193 -66
q-54 -13 -157 -13l-1 3q0 4 133 11q61 17 182 63q26 6 26 10q-95 59 -173 67q-10 0 -120 -98l-5 -3q-3 0 -3 3q36 37 114 101l-45 5q-109 0 -148 -58l-51 -54h-3v1q51 83 107 106q37 13 75 13q51 -2 74 -2v-1q92 72 159 72h5q140 0 450 -287q75 -69 114 -69q166 -48 187 -53
q62 7 95 13v2q-154 9 -200 27q-48 15 -125 85q-172 165 -191 166q-101 68 -207 116q-121 54 -194 54h-19q-25 0 -34 -3q-6 3 -6 5q17 8 43 8q151 0 439 -183q40 -28 156 -141q98 -90 134 -98q27 -18 236 -30q4 0 43 24q37 13 61 13q44 0 96 -55q52 -82 52 -162zM1353 399
h-75v-2l87 -19v10q0 11 -12 11zM1361 367q-30 13 -120 29q-87 -15 -133 -15h-43q-29 0 -59 12h-2v-2q58 -26 135 -26l125 10q31 0 96 -11zM1361 349q-37 15 -91 15h-16q-31 0 -86 -8v-2h35q80 0 157 -11l1 3v3zM1357 330q-33 11 -53 11h-5v-1q0 -9 3 -28h8q48 0 48 18h-1z
M1347 264q-25 0 -59 -27h-5q-6 0 -6 42v3q-1 3 -4 3h-16q-1 0 -1 2q-11 0 -16 -15q-17 -17 -26 -17h-5q-12 0 -14 16v16q-19 -13 -35 -13h-5q-14 0 -36 18q-27 8 -129 25l-117 39q-97 35 -130 35h-8v-2q0 -28 40 -37q22 7 25 7q19 0 36 -29q35 -15 234 -43q116 -26 223 -64
q38 -15 57 -15q7 7 7 26v5q-5 25 -10 25zM1353 415q-3 0 -6 2l-50 -7v-1h40l16 1v5zM1353 304h-3q-13 0 -45 -3q1 -22 8 -22l34 21q6 0 6 4zM1352 288h-3q-4 0 -4 -3h4q3 0 3 3zM1336 170q-13 -3 -13 -7q4 -8 13 -8l5 7v4q0 4 -5 4zM1243 218h-8q-9 0 -48 -10q-1 0 -10 -1
q-19 0 -32 44q-9 10 -19 10h-5q-15 0 -42 -3v-3q109 -68 159 -68q53 -13 75 -13q23 3 23 9v1q0 13 -71 32q-13 2 -22 2zM1321 141h-4v-2q0 -2 8 -8v7q-1 3 -4 3zM1289 131q-3 0 -3 -3q22 -26 32 -26q0 15 -25 29h-4zM1222 150q-12 0 -14 -6q41 -21 96 -70v-2h-2
q-74 60 -106 69q-24 -11 -27 -11v-2q96 -37 143 -64l5 18q0 9 -45 38q-18 0 -29 22q-12 8 -21 8zM1230 94q54 -59 74 -59h5l3 11v2q-13 18 -60 40q-16 6 -22 6zM1285 298v-2q0 -26 3 -45q7 3 13 12v3q-14 30 -16 32zM1099 126l51 -36q38 -48 151 -74q0 3 -53 45
q-54 56 -100 56q-1 1 -49 9zM1301 6q-83 29 -90 29q0 -15 88 -34v2zM1257 158q6 -20 12 -22h4q10 6 10 8q-12 13 -26 14zM1277 343q-2 0 -2 1q-85 0 -237 16h-10q17 -28 34 -28h5q2 0 32 4h4q21 0 32 -33h36q16 0 30 13h2l3 -2q23 10 38 10l26 -5zM1249 312h-3q-13 0 -29 -8
v-1h10q4 0 16 6q12 -1 16 -3v2q-2 4 -10 4zM1238 232q-26 10 -83 26v-2q11 -40 21 -40h3q5 0 59 15v1zM1230 293h-2q-19 0 -19 -13v-1l2 -8h3q16 12 16 22zM1203 399q-93 0 -193 58q-70 17 -115 35q80 -106 197 -106q21 0 111 11v2zM797 149q-73 0 -152 -3q-6 0 -47 4
q-3 0 -67 -36q-44 -20 -74 -20h-11v-1q81 -16 180 -16q35 0 226 19q43 2 69 2q100 0 192 -37q84 -31 87 -31v2q-25 25 -183 91q-46 24 -157 24q0 2 -63 2zM1192 410q-132 43 -154 43q15 -15 81 -35q35 -9 66 -9h7v1zM1180 155h-9v-1h9v1zM1169 174q-31 7 -37 7h-1v-2
q15 -6 20 -6h18v1zM998 141h-2v-2l165 -70q-68 61 -138 69q-21 3 -25 3zM1153 126h-6v-1h6v1zM1142 192h-7v-1h7v1zM1137 130q-45 17 -75 17h-7l-11 -1v-4q89 -14 91 -14h2v2zM1097 176q0 -6 21 -13q3 0 3 3q0 6 -24 10zM1118 219q-83 39 -93 39v-3q28 -13 91 -37h2v1z
M1113 203q-76 33 -111 42h-1v-2q61 -43 66 -43h19q8 0 27 2v1zM1107 319h-10v-2q10 -3 13 -3v2q-1 3 -3 3zM1103 271q-56 14 -213 35q0 -6 93 -19q69 -24 82 -24q23 1 38 4v4zM1062 173q-18 -6 -18 -10q19 -5 43 -8q-16 18 -25 18zM1049 187q-7 5 -37 5h-99v-1
q66 -23 102 -23q31 13 34 19zM1044 320q-27 0 -58 26l-6 3q-8 0 -26 -13q70 -17 82 -17h8v1zM1030 155q-8 -2 -8 -5h22q0 4 -14 5zM1002 352h-3q0 -7 26 -16v2q-14 14 -23 14zM964 243q-52 -14 -71 -14l-46 3l-40 -9q-14 0 -59 32h-4v-4q0 -33 137 -33q15 0 133 -10v2
q-21 19 -50 33zM1009 269q-59 16 -79 16q33 -21 56 -21h13q9 0 10 5zM996 160q-28 5 -32 5h-3v-2q23 -5 30 -5h5v2zM988 401q-34 13 -111 97q-81 73 -206 138q-51 29 -127 29q-7 0 -26 -5q138 -107 230 -155q71 -47 173 -80q6 0 65 -26h2v2zM475 811q-67 0 -149 -64v-3
q5 0 61 -15q44 24 90 24q64 0 200 -59q58 -28 178 -156q26 -39 98 -59q22 -5 32 -5h1q-39 27 -166 145q-117 97 -236 163q-61 29 -109 29zM956 375q-11 -3 -24 -13v-2h3q31 1 31 7v1q0 3 -10 7zM958 203l-108 7h-1v-2q18 -5 109 -8v3zM950 253h-2q-4 0 -79 -3h-30
q-19 0 -63 14q-7 0 -12 -3q20 -27 41 -27l42 8q24 0 42 -3q38 4 61 11v3zM925 152q-32 6 -75 6h-29q-3 0 -3 -3q30 -5 83 -5h24v2zM922 173q-33 11 -69 11h-20v-1q76 -12 88 -12h1v2zM921 269q-39 18 -50 18q-69 -7 -69 -15v-1q19 -8 51 -8q36 0 68 4v2zM865 171
q-178 24 -201 24q-24 -8 -46 -29v-1q51 -10 69 -10h3q17 0 51 7v1l-50 15v3q54 -15 68 -15q44 0 106 4v1zM855 375q-17 10 -45 24v-2q13 -14 43 -24h2v2zM789 335q-3 0 -43 -23q-11 -1 -18 -1h-6l-3 1l1 8v12q0 11 2 35q-30 16 -39 16h-33q-24 9 -24 29q-28 7 -45 22l-10 2
h-51v-2q46 -7 86 -45q13 -19 26 -51q5 -9 45 -18q47 -27 69 -27l37 -13l64 16q-27 15 -27 21q-19 18 -31 18zM472 745q-41 0 -74 -19q56 -23 106 -56q47 3 62 3q87 0 271 -130h2q0 4 -69 71q-83 84 -223 120q-37 8 -75 11zM820 203q-17 4 -18 4h-2v-2q10 -3 16 -3h4v1z
M815 189q-11 0 -50 14h-21q-8 0 -24 -1v-2q40 -8 88 -13h7v2zM762 423h-2v-2q30 -16 34 -16v2q0 4 -32 16zM765 346q-21 10 -24 10q-3 -12 -3 -23v-5h2q9 4 25 18zM746 279v-2q0 -2 10 -8q3 2 4 2v3q0 3 -14 5zM703 445v-1q28 -27 54 -32q-19 19 -54 33zM754 218
q-31 8 -43 8q-21 0 -36 -18h2q43 3 77 8v2zM661 282h-6q0 -11 69 -15q6 -5 14 -8l2 4v3q-7 14 -34 14q-12 2 -45 2zM730 242h-2q-9 -1 -9 -5q5 -3 9 -3h5v5q0 3 -3 3zM541 485q7 -10 73 -14q31 -8 31 -30q0 -28 18 -28q21 -6 65 -9q-32 19 -54 51q-19 13 -114 29q-5 1 -19 1
zM720 255q-72 3 -72 16q-7 6 -22 37q-21 22 -48 22h-7q-13 0 -22 -11v-3q0 -13 147 -74q4 0 7 -2q17 11 17 13v2zM703 298q-47 21 -63 21v-2q14 -24 31 -24h11q6 0 21 3v2zM680 240q-39 15 -138 64h-1l-2 -11v-5q5 -3 13 -21q35 -28 125 -28h3v1zM680 227q-66 5 -94 12
q20 -17 64 -29h1q10 0 29 17zM682 184v-1q-19 4 -19 8v1h1q18 -4 18 -8zM666 489h-2v-7h2v7zM661 476h-3q0 -4 8 -5q0 2 -5 5zM650 407h-3q0 -4 8 -5q0 2 -5 5zM632 493q0 -2 5 -4h3q0 3 -8 4zM635 195q-44 -3 -101 -3h-22v-1q55 -23 86 -23q15 5 37 27zM632 155h-11v-1h11
v1zM608 447q-3 0 -3 -3q18 -8 21 -8v3q0 6 -18 8zM530 269q-28 -10 -34 -10q-64 14 -64 24q-12 12 -24 37q-7 4 -8 4q-22 0 -64 -10v-2q50 -44 149 -107h141q0 2 -56 34zM488 436q0 2 5 5q1 0 12 -2h2v2q-18 0 -98 51h-4q-17 0 -33 -3q68 -72 97 -80q122 -67 150 -73
q-19 50 -45 63q-27 16 -78 29q-8 6 -8 8zM480 578q-34 -31 -34 -35v-3l19 2h10q23 0 51 -40q15 -5 88 -17v2q0 37 -134 91zM584 575q-20 -19 -22 -19q-20 9 -20 29h-3q-8 -4 -13 -13v-2q67 -43 74 -43h2q0 3 -18 48zM581 155l-106 37q-158 0 -186 15q0 1 -13 4v-1
q39 -65 137 -98q17 -6 46 -10q43 0 122 53zM576 453q-33 0 -67 37q-19 3 -63 3h-14q36 -31 86 -43q17 -1 26 -1h3q29 0 29 4zM355 489q-154 -18 -154 -23h30q116 0 220 -85q65 -47 82 -56h1q17 17 29 18v1q-6 7 -107 60q-45 27 -82 67q-12 18 -19 18zM201 458h-3
q-10 0 -32 -3q14 -33 22 -38q15 3 34 3q158 0 200 -37q22 -16 96 -85q3 -2 5 -2q5 6 5 12q-5 14 -64 56q-118 91 -197 91q-13 3 -66 3zM429 324h-4v-2q13 -35 26 -35q0 -3 18 -5q30 1 36 3v2q-39 37 -76 37zM488 590l-2 -4l15 -8l1 4v1q-2 7 -14 7zM494 506q-114 63 -162 63
h-3q-9 0 -21 -13v-2q44 -4 103 -44q0 -6 21 -7h19q14 0 43 2v1zM320 410h-16v-1q24 -2 166 -82q4 -5 11 -5h4q-51 55 -85 67q-46 21 -80 21zM320 309q-31 -8 -31 -11q83 -51 180 -93q-146 104 -149 104zM424 591h-19q-26 0 -63 -11q0 -4 53 -16q0 -1 30 -13q9 0 32 32
q0 7 -33 8zM276 409q-38 -18 -64 -41q38 -48 64 -60q31 9 34 9v2q-10 3 -23 17l4 2l29 -18q44 13 96 13h24q-51 37 -132 66zM265 410q-16 3 -32 3h-10q-18 0 -32 -4v-2q1 -12 20 -32q33 24 54 34v1z" />
    <glyph glyph-name="glyph104" unicode="&#xe006;" horiz-adv-x="946" 
d="M432 873h33q170 0 306 -157q101 -124 101 -322q0 -59 -62 -59q-23 0 -77 18q-78 -89 -78 -170q-3 0 -3 -3q22 -29 69 -80q35 -43 35 -83v-18q0 -46 -65 -83q0 -50 -18 -98h-3v3q15 43 15 83v6q-40 -24 -44 -24l44 33q-9 57 -44 220v35q-33 44 -33 93q0 56 44 104h-6
q-65 0 -65 -15q24 -37 24 -89q0 -59 -77 -152q14 -104 14 -140q0 -47 -20 -101h-3v6q17 40 17 86q0 45 -17 134h-3q-36 -62 -36 -107v-27q0 -54 36 -104q3 -6 3 -9q-23 14 -45 95q0 2 -3 39q0 59 45 131q-6 51 -6 74q0 75 47 167h-3l-101 -15q36 -62 36 -119q0 -62 -72 -211
q-14 -46 -14 -80q0 -52 23 -72h-3l-6 3q6 -10 6 -15q-17 27 -20 27l3 6q-9 39 -9 59q0 53 65 206q12 38 12 74q0 72 -48 125l-20 3v-3q29 -42 29 -86q0 -72 -80 -146l-45 -167q24 -23 84 -62h-3q-41 19 -81 53v-20q0 -30 15 -66v-3h-3q-18 42 -18 84v14q-17 26 -17 45v18
q0 46 59 113l3 41q0 105 -59 203h-51v-3q63 -66 63 -146q0 -74 -81 -202q0 -5 -12 -33q3 -53 3 -86l-3 -30q9 -20 9 -24q-14 0 -24 81v9q0 10 6 50l-11 86q-87 -105 -87 -178v-12q0 -30 9 -62v-3h-3q-12 46 -12 71q0 80 90 202v3q-6 37 -6 77q0 60 20 155q-14 30 -20 30
q-71 -27 -101 -27q-57 5 -57 54q0 343 277 466q75 27 133 27zM171 567q16 -101 101 -101h12q92 20 92 101v6h-51q-7 -57 -50 -57q-51 11 -51 45v12h-47q-6 -1 -6 -6zM519 567v-6q0 -81 92 -101h12q86 0 101 104l-6 3h-48v-12q0 -35 -53 -45q-40 0 -48 57h-50zM676 368
q-53 -41 -53 -110q0 -22 15 -60h5v3q0 63 69 158q0 3 -3 3q-12 6 -33 6zM200 362v-6q6 -7 6 -12q6 0 9 18q-3 0 -3 3q-5 -3 -12 -3zM316 362v-3q45 -88 45 -191v-8l-3 -21h3q59 58 59 113v9q-14 95 -62 95q-32 6 -42 6zM227 347l-6 -27q18 -49 18 -92v-6q0 -75 -45 -134
l12 -86h3l66 143q12 29 12 59v18q0 70 -57 125h-3zM522 174l3 -41q65 76 65 134v3q0 32 -18 71q-50 -69 -50 -167zM209 293q-18 -82 -18 -139v-33l3 -15h3q30 66 30 116q0 22 -12 71h-6zM652 157v-3q0 -27 39 -220v-12h3q57 38 57 86q0 63 -99 149zM293 -1q0 -26 14 -39
q0 9 33 137q-47 -44 -47 -98zM200 -46v-41l3 -30h3v65q0 6 -6 6zM394 -114h3q6 -1 6 -6h-3q-6 0 -6 6zM638 -114h3q0 -6 -6 -6h-3q1 6 6 6zM626 -123h3q0 -4 -9 -9h-3q0 4 9 9zM203 -144h3v-18h-3v18zM519 -147q4 0 11 -12v-3q-4 0 -11 12v3zM328 -156q6 -1 6 -6v-3
q-6 0 -6 6v3zM426 -156q6 -1 6 -6v-3q-6 0 -6 6v3zM200 -162h3v-11h-3v11zM221 -162q6 -1 6 -6v-3q-6 0 -6 6v3zM334 -165q6 -1 6 -6v-2q-6 0 -6 5v3zM432 -165q6 -1 6 -6v-2q-6 0 -6 5v3zM227 -171q6 0 6 -5v-3q-6 0 -6 6v2zM667 -182h3v-6q-7 -18 -12 -18v3q9 15 9 21z
M111 -185h3l3 -12v-3h-3q-3 10 -3 12v3zM459 -185v-9q-6 0 -6 6zM459 -194q6 -1 6 -6l-6 -3v9zM655 -212v-3q0 -6 -6 -6v3q1 6 6 6zM649 -221v-3q0 -6 -6 -6v3q1 6 6 6z" />
    </font>
</defs>
</svg>
